<?xml version="1.0" standalone="no"?>
<!DOCTYPE svg PUBLIC "-//W3C//DTD SVG 1.1//EN" "http://www.w3.org/Graphics/SVG/1.1/DTD/svg11.dtd" >
<svg xmlns="http://www.w3.org/2000/svg" xmlns:xlink="http://www.w3.org/1999/xlink" version="1.1">
<metadata>
Created by FontForge 20170731 at Tue Jun 21 17:48:30 2022
 By Aleksey,,,
 Dutch Design: Albert-Jan Pool, 1995. Published by FontShop International FontFont release 15
</metadata>
<defs>
<font id="DIN-BoldAlternate" horiz-adv-x="1112" >
  <font-face 
    font-family="DIN Alternate"
    font-weight="700"
    font-stretch="normal"
    units-per-em="2048"
    panose-1="0 0 0 0 0 0 0 0 0 0"
    ascent="1638"
    descent="-410"
    x-height="1067"
    cap-height="1458"
    bbox="-236 -422 2372 2079"
    underline-thickness="178"
    underline-position="-454"
    unicode-range="U+0020-FB02"
  />
<missing-glyph horiz-adv-x="2048" 
 />
    <glyph glyph-name=".notdef" horiz-adv-x="2048" 
 />
    <glyph glyph-name=".null" horiz-adv-x="0" 
 />
    <glyph glyph-name="nonmarkingreturn" horiz-adv-x="682" 
 />
    <glyph glyph-name="space" unicode=" " horiz-adv-x="475" 
 />
    <glyph glyph-name="exclam" unicode="!" horiz-adv-x="710" 
d="M559 1458l-67 -1001h-197l-66 1001h330zM555 154q0 -66 -48 -113t-114 -47t-113 47t-47 113t47 113.5t113 47.5t114 -47.5t48 -113.5z" />
    <glyph glyph-name="quotedbl" unicode="&#x22;" horiz-adv-x="950" 
d="M809 1026h-248v432h248v-432zM389 1026h-250v432h250v-432z" />
    <glyph glyph-name="numbersign" unicode="#" horiz-adv-x="1415" 
d="M1317 860h-182l-33 -221h141v-250h-182l-62 -389h-280l63 389h-237l-62 -389h-280l61 389h-141v250h182l33 221h-143v248h182l57 362h281l-58 -362h238l57 362h279l-55 -362h141v-248zM854 860h-236l-34 -221h237z" />
    <glyph glyph-name="dollar" unicode="$" horiz-adv-x="1267" 
d="M1169 430q0 -182 -121 -296t-319 -138v-229h-207v221q-153 5 -269.5 49.5t-213.5 142.5l184 185q116 -116 326 -123v370l-66 9q-184 24 -282 122q-105 105 -105 285q0 179 114 297.5t312 140.5v185h207v-183q125 -8 223 -48.5t181 -119.5l-181 -178q-90 87 -252 99v-357
l78 -12q186 -28 279 -115q112 -106 112 -307zM549 877v342q-86 -12 -132 -61.5t-46 -119.5q0 -64 43 -104q48 -45 135 -57zM891 422q0 81 -45 123q-19 18 -47 29.5t-44 14.5t-55 9v-352q92 11 141.5 56t49.5 120z" />
    <glyph glyph-name="percent" unicode="%" horiz-adv-x="1736" 
d="M1630 268q0 -132 -85 -206t-212 -74q-128 0 -212.5 73.5t-84.5 206.5v203q0 133 84.5 207t212.5 74q126 0 211.5 -74.5t85.5 -206.5v-203zM1319 1458l-690 -1458h-209l690 1458h209zM700 987q0 -132 -85 -206t-212 -74q-128 0 -212.5 73.5t-84.5 206.5v203
q0 133 84.5 206.5t212.5 73.5q127 0 212 -74t85 -206v-203zM1438 276v187q0 58 -27.5 87.5t-77.5 29.5q-104 0 -104 -117v-187q0 -116 104 -116q50 0 77.5 29t27.5 87zM508 995v187q0 58 -27.5 87t-77.5 29q-104 0 -104 -116v-187q0 -116 104 -116q50 0 77.5 29t27.5 87z
" />
    <glyph glyph-name="ampersand" unicode="&#x26;" horiz-adv-x="1476" 
d="M1425 0h-338l-106 127q-80 -62 -130 -87q-108 -52 -247 -52q-237 0 -359 116t-122 326q0 67 22 127t62.5 108t82 84t95.5 72q-30 35 -49 59.5t-44.5 66t-38.5 88t-13 95.5q0 152 104.5 246t284.5 94q169 0 270.5 -96t101.5 -248q0 -80 -38 -140.5t-111 -113.5
q-67 -50 -104 -75l245 -291q68 91 74 256h252q-16 -295 -156 -453zM750 1124q0 52 -32.5 85.5t-88.5 33.5q-58 0 -89.5 -33t-31.5 -86q0 -25 15.5 -55t31 -49t49.5 -59l62 40q84 59 84 123zM819 315l-291 342q-49 -34 -78.5 -62.5t-49 -69.5t-19.5 -91q0 -90 63.5 -147.5
t157.5 -57.5q118 0 217 86z" />
    <glyph glyph-name="quotesingle" unicode="'" horiz-adv-x="530" 
d="M391 1026h-252v432h252v-432z" />
    <glyph glyph-name="parenleft" unicode="(" horiz-adv-x="688" 
d="M575 -14l-178 -179q-50 50 -70 70.5t-54 62t-56 78.5q-53 92 -53 265v893q0 172 53 264q22 37 56 78.5t54 62t70 70.5l178 -178q-31 -31 -45 -46t-33 -39.5t-36 -52.5q-31 -57 -31 -172v-868q0 -115 31 -172q17 -28 36.5 -52.5t32 -38t45.5 -46.5z" />
    <glyph glyph-name="parenright" unicode=")" horiz-adv-x="688" 
d="M524 283q0 -173 -53 -265q-22 -37 -56 -78.5t-54 -62t-70 -70.5l-180 181l17.5 17.5l16.5 16.5t14 14.5t14.5 15.5t12.5 15t13.5 17.5t12.5 17.5t13 21q31 57 31 172v868q0 115 -31 172q-7 12 -14 22.5t-16 22t-13.5 17t-17 19t-15 16l-19 19l-19.5 19.5l180 181
q50 -50 70 -70.5t54 -62t56 -78.5q53 -92 53 -264v-893z" />
    <glyph glyph-name="asterisk" unicode="*" horiz-adv-x="1011" 
d="M901 942l-94 -162l-215 135l8 -256h-188l10 256l-217 -135l-92 162l225 119l-225 119l92 163l217 -137l-10 256h188l-8 -256l215 137l94 -163l-227 -119z" />
    <glyph glyph-name="plus" unicode="+" 
d="M1010 442h-328v-327h-250v327h-330v250h330v328h250v-328h328v-250z" />
    <glyph glyph-name="comma" unicode="," horiz-adv-x="571" 
d="M432 -113l-293 -225v629h293v-404z" />
    <glyph glyph-name="hyphen" unicode="-" horiz-adv-x="872" 
d="M752 461h-631v248h631v-248z" />
    <glyph glyph-name="period" unicode="." horiz-adv-x="604" 
d="M481 172q0 -73 -53 -125.5t-127 -52.5q-73 0 -125.5 52t-52.5 126t52.5 126t125.5 52q74 0 127 -52.5t53 -125.5z" />
    <glyph glyph-name="slash" unicode="/" horiz-adv-x="825" 
d="M834 1610l-584 -1762h-250l584 1762h250z" />
    <glyph glyph-name="zero" unicode="0" horiz-adv-x="1114" 
d="M1001 422q0 -102 -36 -185t-97 -137t-141 -83t-170 -29t-170 29t-141 83t-97 137t-36 185v379q0 102 36 185t97 137t141 83t170 29t170 -29t141 -83t97 -137t36 -185v-379zM735 424v373q0 91 -49.5 144.5t-128.5 53.5t-128.5 -53.5t-49.5 -144.5v-373q0 -91 49.5 -144
t128.5 -53t128.5 53t49.5 144z" />
    <glyph glyph-name="one" unicode="1" horiz-adv-x="897" 
d="M674 0h-266v936l-299 -258v287l299 258h266v-1223z" />
    <glyph glyph-name="two" unicode="2" horiz-adv-x="1122" 
d="M1004 0h-916v240l477 407q74 64 110 115t36 106q0 74 -48.5 121t-127.5 47q-75 0 -127 -45.5t-52 -134.5h-266q0 191 127.5 305.5t317.5 114.5q192 0 317 -111.5t125 -292.5q0 -57 -18 -108t-59 -102.5t-78.5 -89t-104.5 -97.5l-264 -235h551v-240z" />
    <glyph glyph-name="three" unicode="3" horiz-adv-x="1095" 
d="M995 186q0 -106 -37 -190.5t-101 -137.5t-147 -80.5t-178 -27.5q-92 0 -172.5 25t-146.5 75t-105 135t-40 195h266q3 -93 59 -141.5t139 -48.5q88 0 142.5 53.5t54.5 149.5q0 92 -54 146t-151 54h-39v232h39q92 0 138.5 51t46.5 133q0 88 -51.5 137t-127.5 49t-126 -47
t-54 -129h-266q3 127 63 222.5t159.5 144.5t223.5 49q194 0 319.5 -117t125.5 -301q0 -210 -168 -299q188 -99 188 -332z" />
    <glyph glyph-name="four" unicode="4" horiz-adv-x="1208" 
d="M1126 61h-163v-313h-254v313h-629v252l500 1000h284l-497 -1000h342v301h254v-301h163v-252z" />
    <glyph glyph-name="five" unicode="5" horiz-adv-x="1128" 
d="M1022 256q0 -133 -27 -221.5t-102 -163.5q-119 -119 -322 -119q-107 0 -190 32.5t-135 84.5q-62 62 -87 135.5t-32 167.5h266q22 -180 178 -180q80 0 127 47q58 58 58 217q0 130 -42 196t-136 66q-75 0 -118 -34.5t-59 -84.5h-243v824h831v-240h-590v-313q32 30 91 51.5
t128 21.5q175 0 273 -98q79 -79 105 -172.5t26 -216.5z" />
    <glyph glyph-name="six" unicode="6" horiz-adv-x="1124" 
d="M1040 461q0 -220 -134 -346.5t-343 -126.5q-210 0 -344.5 124t-134.5 343q0 122 33 226t108 239l318 571h284l-348 -608q59 30 156 30q81 0 154 -30t129 -86t89 -143t33 -193zM774 457q0 107 -59 173t-154 66q-94 0 -152.5 -64t-58.5 -175t58.5 -175.5t152.5 -64.5
t153.5 65t59.5 175z" />
    <glyph glyph-name="seven" unicode="7" horiz-adv-x="1132" 
d="M1061 983l-539 -1225h-286l538 1225h-428v-229h-254v469h969v-240z" />
    <glyph glyph-name="eight" unicode="8" horiz-adv-x="1146" 
d="M1040 424q0 -137 -63.5 -237.5t-168 -149.5t-235.5 -49t-235.5 49t-168 149.5t-63.5 237.5q0 205 185 328q-164 113 -164 303q0 188 128.5 301.5t317.5 113.5t318 -113.5t129 -301.5q0 -190 -164 -303q184 -122 184 -328zM754 1047q0 78 -51.5 131t-129.5 53t-129 -53
t-51 -131q0 -80 51 -132.5t129 -52.5t129.5 52.5t51.5 132.5zM774 428q0 85 -58 144t-143 59q-84 0 -142 -59t-58 -144t57.5 -143t142.5 -58t143 58t58 143z" />
    <glyph glyph-name="nine" unicode="9" horiz-adv-x="1124" 
d="M1040 768q0 -122 -33 -226t-108 -239l-315 -571h-287l348 608q-61 -31 -156 -31q-81 0 -154 30.5t-129 86.5t-89 143t-33 193q0 220 134 346.5t343 126.5q210 0 344.5 -124t134.5 -343zM774 766q0 111 -58.5 175.5t-152.5 64.5t-153.5 -65t-59.5 -175q0 -107 59 -173.5
t154 -66.5q94 0 152.5 64.5t58.5 175.5z" />
    <glyph glyph-name="colon" unicode=":" horiz-adv-x="653" 
d="M530 715q0 -73 -52 -125.5t-126 -52.5t-126 52.5t-52 125.5q0 74 52.5 127t125.5 53t125.5 -53t52.5 -127zM530 172q0 -74 -52 -126t-126 -52t-126 52t-52 126t52 126t126 52t126 -52t52 -126z" />
    <glyph glyph-name="semicolon" unicode=";" horiz-adv-x="632" 
d="M530 715q0 -73 -52 -125.5t-126 -52.5t-126 52.5t-52 125.5q0 74 52.5 127t125.5 53t125.5 -53t52.5 -127zM498 -113l-291 -225v629h291v-404z" />
    <glyph glyph-name="less" unicode="&#x3c;" horiz-adv-x="2103" 
d="M1839 426l-788 -791l-789 791v336l664 -670v1442h252v-1442l661 670v-336z" />
    <glyph glyph-name="equal" unicode="=" 
d="M1010 682h-908v250h908v-250zM1010 238h-908v249h908v-249z" />
    <glyph glyph-name="greater" unicode="&#x3e;" horiz-adv-x="2103" 
d="M1841 410l-663 669v-1444h-250v1444l-664 -669v335l789 789l788 -789v-335z" />
    <glyph glyph-name="question" unicode="?" horiz-adv-x="1071" 
d="M997 1061q0 -123 -100 -256l-152 -201q-36 -49 -36 -104v-43h-267v61q0 63 18 110.5t60 102.5l152 195q59 77 59 137q0 73 -45.5 120.5t-120.5 47.5q-79 0 -121.5 -48t-42.5 -122h-266q0 124 58 218t155 142.5t217 48.5q117 0 214 -47t157.5 -141.5t60.5 -220.5zM737 154
q0 -66 -48 -113t-114 -47t-112.5 47t-46.5 113t46.5 113.5t112.5 47.5t114 -47.5t48 -113.5z" />
    <glyph glyph-name="at" unicode="@" horiz-adv-x="1552" 
d="M1434 -6l-248 6v94q-51 -56 -107.5 -81t-138.5 -25q-164 0 -258 102q-59 63 -77.5 147t-18.5 236q0 149 18 232.5t76 146.5q93 104 258 104q152 0 242 -100v92q0 137 -72 209t-205 72h-254q-133 0 -205 -72q-42 -42 -56.5 -90t-14.5 -119v-592q0 -75 19 -116t71 -86
l-184 -185q-91 80 -126.5 159.5t-35.5 213.5v612q0 130 29.5 224.5t97.5 162.5t161.5 96.5t223.5 28.5h295q128 0 222 -28t163 -97q68 -68 96.5 -161.5t28.5 -225.5v-960zM1180 473q0 130 -38 196t-132 66q-93 0 -130.5 -66t-37.5 -196t37.5 -197t130.5 -67t131.5 67
t38.5 197z" />
    <glyph glyph-name="A" unicode="A" horiz-adv-x="1306" 
d="M1296 0h-297l-86 258h-518l-88 -258h-297l531 1458h223zM838 498l-179 530l-184 -530h363z" />
    <glyph glyph-name="B" unicode="B" horiz-adv-x="1347" 
d="M1227 420q0 -199 -123.5 -309.5t-323.5 -110.5h-610v1458h586q212 0 331 -110t119 -299q0 -110 -56 -189.5t-124 -111.5q37 -17 69 -42t63.5 -63.5t50 -96t18.5 -126.5zM922 1036q0 76 -50 122t-139 46h-278v-336h278q89 0 139 46t50 122zM942 434q0 78 -48.5 128
t-141.5 50h-297v-358h297q92 0 141 51t49 129z" />
    <glyph glyph-name="C" unicode="C" horiz-adv-x="1150" 
d="M1063 156q-85 -83 -179.5 -125.5t-226.5 -42.5q-234 0 -393 159q-35 35 -60 72.5t-40.5 85t-24.5 84.5t-13 100.5t-4.5 102t-0.5 117.5v20q0 221 12 304q26 172 131 278q159 159 393 159q132 0 227 -42t179 -125l-189 -189q-54 54 -100 78.5t-117 24.5q-114 0 -180 -76
q-42 -47 -56.5 -126.5t-14.5 -285.5t14.5 -285.5t56.5 -126.5q65 -75 180 -75q71 0 117.5 24.5t99.5 77.5z" />
    <glyph glyph-name="D" unicode="D" horiz-adv-x="1349" 
d="M1229 735q0 -16 0.5 -64.5t0 -66.5t-1.5 -62.5t-3.5 -65t-8 -59.5t-12.5 -61.5t-18.5 -56t-26 -57.5t-34.5 -51.5t-44 -51.5q-139 -139 -385 -139h-526v1458h526q246 0 385 -139q24 -24 44 -51t34.5 -50.5t26 -56.5t18.5 -54.5t12.5 -59.5t8 -58t3.5 -63.5t1.5 -60.5
t0 -65.5t-0.5 -64.5zM944 735q0 175 -11.5 253.5t-49.5 125.5q-75 90 -213 90h-215v-950h215q138 0 213 90q38 47 49.5 130.5t11.5 260.5z" />
    <glyph glyph-name="E" unicode="E" horiz-adv-x="1239" 
d="M1130 0h-960v1458h960v-254h-675v-342h575v-254h-575v-354h675v-254z" />
    <glyph glyph-name="F" unicode="F" horiz-adv-x="1208" 
d="M1130 1204h-675v-358h575v-254h-575v-592h-285v1458h960v-254z" />
    <glyph glyph-name="G" unicode="G" horiz-adv-x="1304" 
d="M1200 602q0 -162 -30 -265t-105 -181q-160 -168 -408 -168q-234 0 -393 159q-35 35 -60 72.5t-40.5 85t-24.5 84.5t-13 100.5t-4.5 102t-0.5 117.5v20q0 221 12 304q26 172 131 278q159 159 393 159q149 0 247.5 -42.5t199.5 -143.5l-193 -192q-68 68 -121.5 96.5
t-132.5 28.5q-114 0 -182 -78q-42 -47 -55.5 -124.5t-13.5 -285.5t13.5 -287t55.5 -125q65 -75 182 -75q119 0 195 82q63 68 63 198v51h-258v238h543v-209z" />
    <glyph glyph-name="H" unicode="H" horiz-adv-x="1402" 
d="M1233 0h-285v610h-493v-610h-285v1458h285v-596h493v596h285v-1458z" />
    <glyph glyph-name="I" unicode="I" horiz-adv-x="624" 
d="M455 0h-285v1458h285v-1458z" />
    <glyph glyph-name="J" unicode="J" horiz-adv-x="1046" 
d="M895 479q0 -117 -42 -212t-114 -155t-163.5 -92t-194.5 -32q-120 0 -207 34t-168 115l189 187q41 -41 81.5 -61.5t104.5 -20.5q107 0 168 63.5t61 186.5v966h285v-979z" />
    <glyph glyph-name="K" unicode="K" horiz-adv-x="1361" 
d="M1350 0h-332l-375 664l-188 -226v-438h-285v1458h285v-635l514 635h346l-484 -579z" />
    <glyph glyph-name="L" unicode="L" horiz-adv-x="1177" 
d="M1116 0h-946v1458h285v-1204h661v-254z" />
    <glyph glyph-name="M" unicode="M" horiz-adv-x="1660" 
d="M1491 0h-285v850l-278 -553h-193l-280 553v-850h-285v1458h281l380 -788l379 788h281v-1458z" />
    <glyph glyph-name="N" unicode="N" horiz-adv-x="1456" 
d="M1286 0h-254l-577 895v-895h-285v1458h254l577 -893v893h285v-1458z" />
    <glyph glyph-name="O" unicode="O" horiz-adv-x="1318" 
d="M1198 729q0 -86 -0.5 -123t-4 -105t-12.5 -105t-25 -86.5t-41.5 -88t-61.5 -74.5q-159 -159 -394 -159q-236 0 -395 159q-35 35 -60 72.5t-40.5 85t-24.5 84.5t-13 100.5t-4.5 102t-0.5 117.5v20q0 221 12 304q26 172 131 278q159 159 395 159q235 0 394 -159
q36 -36 61.5 -74.5t41.5 -88t25 -86.5t12.5 -105t4 -105t0.5 -123zM913 729q0 206 -14.5 284.5t-56.5 125.5q-68 78 -183 78q-116 0 -184 -78q-42 -47 -55.5 -124.5t-13.5 -285.5t13.5 -285.5t55.5 -124.5q67 -77 184 -77q116 0 183 77q42 47 56.5 125.5t14.5 284.5z" />
    <glyph glyph-name="P" unicode="P" horiz-adv-x="1286" 
d="M1217 1004q0 -93 -33.5 -175.5t-94 -145t-152.5 -98.5t-202 -36h-280v-549h-285v1458h565q219 0 350.5 -131t131.5 -323zM932 1004q0 90 -57.5 145t-153.5 55h-266v-399h266q96 0 153.5 54.5t57.5 144.5z" />
    <glyph glyph-name="Q" unicode="Q" horiz-adv-x="1316" 
d="M1233 88l-150 -149l-129 129q-124 -80 -295 -80q-236 0 -395 159q-35 35 -60 72.5t-40.5 85t-24.5 84.5t-13 100.5t-4.5 102t-0.5 117.5v20q0 221 12 304q26 172 131 278q159 159 395 159q235 0 394 -159q36 -36 61.5 -74.5t41.5 -88t25 -86.5t12.5 -105t4 -105t0.5 -123
q0 -111 -1.5 -159.5t-9 -125t-27 -129.5t-52.5 -102zM913 729q0 206 -14.5 284.5t-56.5 125.5q-68 78 -183 78q-116 0 -184 -78q-42 -47 -55.5 -124.5t-13.5 -285.5t13.5 -285.5t55.5 -124.5q67 -77 184 -77q56 0 95 26l-127 125l151 150l109 -109q16 44 21 108.5t5 186.5z
" />
    <glyph glyph-name="R" unicode="R" horiz-adv-x="1339" 
d="M1274 0h-330l-285 582h-204v-582h-285v1458h571q144 0 253 -61t164.5 -161.5t55.5 -223.5q0 -145 -75.5 -243t-190.5 -140zM930 1012q0 85 -57 138.5t-150 53.5h-268v-385h268q93 0 150 54t57 139z" />
    <glyph glyph-name="S" unicode="S" horiz-adv-x="1210" 
d="M1112 430q0 -206 -152.5 -324t-388.5 -118q-173 0 -301 43.5t-231 148.5l184 185q123 -123 352 -123q126 0 192.5 46t66.5 134q0 80 -46 123q-41 38 -129 51l-176 25q-184 27 -282 120q-105 105 -105 287q0 198 137.5 320t370.5 122q153 0 265.5 -40t205.5 -130
l-180 -178q-62 60 -136.5 80.5t-162.5 20.5q-109 0 -167 -52.5t-58 -132.5q0 -64 43 -104q49 -45 135 -57l172 -25q184 -25 278 -113q113 -107 113 -309z" />
    <glyph glyph-name="T" unicode="T" horiz-adv-x="1169" 
d="M1108 1204h-381v-1204h-285v1204h-381v254h1047v-254z" />
    <glyph glyph-name="U" unicode="U" horiz-adv-x="1368" 
d="M1221 500q0 -151 -72 -269t-194 -180.5t-271 -62.5t-271 62.5t-194 180.5t-72 269v958h285v-948q0 -125 68 -196.5t184 -71.5t185 71.5t69 196.5v948h283v-958z" />
    <glyph glyph-name="V" unicode="V" horiz-adv-x="1189" 
d="M1184 1458l-484 -1458h-213l-481 1458h295l293 -950l293 950h297z" />
    <glyph glyph-name="W" unicode="W" horiz-adv-x="1816" 
d="M1804 1458l-391 -1458h-237l-269 885l-268 -885h-238l-389 1458h297l226 -919l266 919h213l266 -919l227 919h297z" />
    <glyph glyph-name="X" unicode="X" horiz-adv-x="1234" 
d="M1225 0h-326l-283 508l-280 -508h-326l453 748l-424 710h323l254 -471l256 471h322l-424 -710z" />
    <glyph glyph-name="Y" unicode="Y" horiz-adv-x="1171" 
d="M1165 1458l-438 -860v-598h-283v598l-438 860h309l273 -588l268 588h309z" />
    <glyph glyph-name="Z" unicode="Z" horiz-adv-x="1122" 
d="M1040 0h-958v229l623 975h-596v254h931v-225l-624 -979h624v-254z" />
    <glyph glyph-name="bracketleft" unicode="[" horiz-adv-x="774" 
d="M690 -152h-526v1762h526v-240h-260v-1282h260v-240z" />
    <glyph glyph-name="backslash" unicode="\" horiz-adv-x="825" 
d="M825 -152h-250l-575 1735h250z" />
    <glyph glyph-name="bracketright" unicode="]" horiz-adv-x="774" 
d="M612 -152h-526v238h260v1286h-260v238h526v-1762z" />
    <glyph glyph-name="asciicircum" unicode="^" horiz-adv-x="1232" 
d="M1104 797h-279l-209 385l-208 -385h-279l365 676h245z" />
    <glyph glyph-name="underscore" unicode="_" horiz-adv-x="1232" 
d="M1233 -365h-1233v179h1233v-179z" />
    <glyph glyph-name="grave" unicode="`" horiz-adv-x="1024" 
d="M625 1237h-179l-233 348h281z" />
    <glyph glyph-name="a" unicode="a" horiz-adv-x="1093" 
d="M956 0h-260v92q-55 -55 -113.5 -78.5t-148.5 -23.5q-178 0 -272 94q-88 91 -88 240q0 135 93 222t271 87h252v53q0 88 -46.5 128t-151.5 40q-75 0 -118.5 -19.5t-86.5 -68.5l-170 166q76 84 162 115.5t223 31.5q225 0 339.5 -95t114.5 -282v-702zM690 393v58h-211
q-72 0 -110.5 -32t-38.5 -89t38.5 -90t114.5 -33q62 0 98.5 9.5t69.5 41.5q39 36 39 135z" />
    <glyph glyph-name="b" unicode="b" horiz-adv-x="1146" 
d="M1042 535q0 -79 -2.5 -126.5t-11.5 -115.5t-32.5 -119.5t-61.5 -89.5q-45 -45 -114 -70.5t-146 -25.5q-86 0 -148.5 26t-117.5 86v-100h-258v1458h266v-485q51 57 112.5 81.5t145.5 24.5q77 0 146 -25.5t114 -70.5q38 -38 61.5 -89t32.5 -118.5t11.5 -114.5t2.5 -126z
M776 535q0 58 -3.5 99t-14 82.5t-30 67t-52.5 41t-80 15.5t-80 -15.5t-52.5 -41t-30 -67t-14 -82.5t-3.5 -99t3.5 -99.5t14 -83.5t30 -67.5t52.5 -41.5t80 -16t80 16t52.5 41.5t30 67.5t14 83.5t3.5 99.5z" />
    <glyph glyph-name="c" unicode="c" horiz-adv-x="983" 
d="M926 133q-139 -145 -353 -145q-68 0 -131.5 15t-128 54t-111.5 98.5t-76.5 157t-29.5 222.5t29.5 222t76.5 156.5t111.5 98t127.5 53t132 14.5q216 0 353 -143l-181 -180q-42 45 -81 64.5t-91 19.5q-93 0 -151 -70q-60 -75 -60 -235q0 -163 60 -238q58 -70 151 -70
q52 0 91 19.5t81 64.5z" />
    <glyph glyph-name="d" unicode="d" horiz-adv-x="1148" 
d="M999 0h-260v100q-55 -61 -116.5 -86.5t-147.5 -25.5q-78 0 -148 26t-114 70q-38 38 -61.5 89.5t-33 119t-12 116t-2.5 126.5q0 77 2.5 125.5t12 115.5t33 118t61.5 89q45 45 114 70.5t146 25.5q84 0 146.5 -24.5t113.5 -81.5v485h266v-1458zM733 535q0 58 -3.5 99.5
t-14.5 82.5t-30.5 66.5t-53 41t-80.5 15.5t-80 -15.5t-52.5 -41t-30 -67t-14 -82.5t-3.5 -99t3.5 -99.5t14 -83.5t30 -67.5t52.5 -41.5t80 -16q58 0 95.5 22.5t55.5 68t24.5 95t6.5 122.5z" />
    <glyph glyph-name="e" unicode="e" horiz-adv-x="1122" 
d="M1026 451h-668q0 -106 62 -172t172 -66q84 0 136 23t106 77l161 -157q-88 -88 -178 -128t-227 -40q-80 0 -148.5 15t-134 53.5t-111 99t-73 157.5t-27.5 222q0 257 127 400.5t338 143.5q145 0 251.5 -66.5t160 -181t53.5 -262.5v-118zM764 633q-3 60 -25 115
q-51 110 -178 110t-178 -110q-22 -55 -25 -115h406z" />
    <glyph glyph-name="f" unicode="f" horiz-adv-x="700" 
d="M645 834h-196v-834h-267v834h-110v202h110v133q0 59 18.5 112.5t55.5 97.5t98.5 70t139.5 26h151v-226h-104q-92 0 -92 -96v-117h196v-202z" />
    <glyph glyph-name="g" unicode="g" horiz-adv-x="1136" 
d="M987 39q0 -195 -128 -318.5t-341 -123.5q-127 0 -216.5 31t-170.5 108l166 168q45 -43 93.5 -62.5t115.5 -19.5q111 0 163 64t52 157v109q-96 -107 -254 -107q-160 0 -254 94q-69 69 -89 165t-20 259t20 258t89 164q94 94 256 94q85 0 145 -25.5t115 -86.5v100h258v-1028
zM721 563q0 48 -3 83.5t-13.5 74t-29 63t-51.5 40.5t-79 16t-78.5 -16t-51 -40t-28.5 -63t-13 -74t-3 -84t3 -84t13 -74t28.5 -63.5t51 -40.5t78.5 -16t79 16t51.5 40.5t29 63.5t13.5 74.5t3 83.5z" />
    <glyph glyph-name="h" unicode="h" horiz-adv-x="1165" 
d="M1028 0h-266v651q0 98 -51 143.5t-123 45.5q-71 0 -121.5 -46t-50.5 -143v-651h-266v1458h266v-489q107 110 256 110q170 0 263 -107.5t93 -281.5v-690z" />
    <glyph glyph-name="i" unicode="i" horiz-adv-x="563" 
d="M449 1368q0 -69 -48.5 -118.5t-117.5 -49.5t-118.5 49.5t-49.5 118.5t49.5 117.5t118.5 48.5t117.5 -48.5t48.5 -117.5zM416 0h-266v1067h266v-1067z" />
    <glyph glyph-name="j" unicode="j" horiz-adv-x="563" 
d="M449 1368q0 -69 -48.5 -118.5t-117.5 -49.5t-118.5 49.5t-49.5 118.5t49.5 117.5t118.5 48.5t117.5 -48.5t48.5 -117.5zM416 -94q0 -59 -18.5 -112t-55 -97t-98 -70t-140.5 -26h-151v225h102q50 0 72.5 24t22.5 72v1145h266v-1161z" />
    <glyph glyph-name="k" unicode="k" horiz-adv-x="1144" 
d="M1120 0h-329l-263 444l-112 -127v-317h-266v1458h266v-827l354 436h322l-381 -430z" />
    <glyph glyph-name="l" unicode="l" horiz-adv-x="665" 
d="M602 0h-151q-79 0 -140.5 26t-98 70t-55 97t-18.5 112v1153h267v-1136q0 -49 22 -73t72 -24h102v-225z" />
    <glyph glyph-name="m" unicode="m" horiz-adv-x="1794" 
d="M1657 0h-266v645q0 100 -52.5 147.5t-124.5 47.5q-71 0 -124.5 -46.5t-53.5 -142.5v-651h-266v645q0 100 -52 147.5t-124 47.5q-73 0 -125.5 -47.5t-52.5 -147.5v-645h-266v1067h260v-98q52 53 121.5 81.5t144.5 28.5q182 0 282 -135q68 71 144 103t176 32
q79 0 148.5 -25t113.5 -69q117 -117 117 -303v-682z" />
    <glyph glyph-name="n" unicode="n" horiz-adv-x="1173" 
d="M1036 0h-266v645q0 100 -52 147.5t-124 47.5q-73 0 -125.5 -47.5t-52.5 -147.5v-645h-266v1067h260v-98q104 110 266 110q158 0 252 -94q61 -61 84.5 -134t23.5 -169v-682z" />
    <glyph glyph-name="o" unicode="o" 
d="M1008 535q0 -154 -26 -249t-95 -167q-124 -131 -332 -131q-206 0 -330 131q-69 72 -95 167t-26 249q0 152 26 246.5t95 166.5q124 131 330 131q208 0 332 -131q69 -72 95 -166.5t26 -246.5zM741 535q0 98 -11.5 159t-49.5 99q-47 47 -125 47q-76 0 -123 -47
q-38 -38 -49.5 -99t-11.5 -159q0 -99 11.5 -161t49.5 -100q47 -47 123 -47q78 0 125 47q38 38 49.5 100t11.5 161z" />
    <glyph glyph-name="p" unicode="p" horiz-adv-x="1146" 
d="M1042 535q0 -79 -2.5 -126.5t-11.5 -115.5t-32.5 -119.5t-61.5 -89.5q-45 -45 -114 -70.5t-146 -25.5q-84 0 -145.5 24.5t-112.5 81.5v-485h-266v1458h258v-100q55 60 117.5 86t148.5 26q77 0 146 -25.5t114 -70.5q38 -38 61.5 -89t32.5 -118.5t11.5 -114.5t2.5 -126z
M776 535q0 58 -3.5 99t-14 82.5t-30 67t-52.5 41t-80 15.5t-80 -15.5t-52.5 -41t-30 -67t-14 -82.5t-3.5 -99t3.5 -99.5t14 -83.5t30 -67.5t52.5 -41.5t80 -16t80 16t52.5 41.5t30 67.5t14 83.5t3.5 99.5z" />
    <glyph glyph-name="q" unicode="q" horiz-adv-x="1148" 
d="M999 -391h-266v485q-51 -57 -113.5 -81.5t-146.5 -24.5q-77 0 -146 25.5t-114 70.5q-38 38 -61.5 89.5t-33 119t-12 116t-2.5 126.5q0 77 2.5 125.5t12 115.5t33 118t61.5 89q44 44 114 70t148 26q86 0 147.5 -25.5t116.5 -86.5v100h260v-1458zM733 535q0 58 -3.5 99.5
t-14.5 82.5t-30.5 66.5t-53 41t-80.5 15.5t-80 -15.5t-52.5 -41t-30 -67t-14 -82.5t-3.5 -99t3.5 -99.5t14 -83.5t30 -67.5t52.5 -41.5t80 -16q58 0 95.5 22.5t55.5 68t24.5 95t6.5 122.5z" />
    <glyph glyph-name="r" unicode="r" horiz-adv-x="931" 
d="M930 979l-201 -203q-34 34 -64.5 49t-76.5 15q-68 0 -120 -51t-52 -146v-643h-266v1067h260v-102q41 49 113.5 81.5t154.5 32.5q80 0 139 -23t113 -77z" />
    <glyph glyph-name="s" unicode="s" horiz-adv-x="1026" 
d="M952 336q0 -86 -35 -153.5t-97 -109.5t-143 -63.5t-177 -21.5q-148 0 -255 30t-200 123l174 174q100 -100 285 -100q78 0 133 27.5t55 83.5q0 87 -112 98l-168 16q-152 14 -232 85.5t-80 213.5q0 106 58.5 185t150.5 117t203 38q275 0 408 -125l-164 -166q-80 72 -248 72
q-75 0 -113.5 -29.5t-38.5 -72.5q0 -83 111 -92l168 -17q157 -15 237 -95.5t80 -217.5z" />
    <glyph glyph-name="t" unicode="t" horiz-adv-x="720" 
d="M629 0h-146q-78 0 -139 26t-97 70t-54.5 97t-18.5 112v529h-113v202h113v316h266v-316h189v-202h-189v-512q0 -97 92 -97h97v-225z" />
    <glyph glyph-name="u" unicode="u" horiz-adv-x="1173" 
d="M1024 0h-260v98q-104 -110 -266 -110q-158 0 -252 94q-61 61 -85 134.5t-24 168.5v682h266v-645q0 -100 52.5 -147.5t124.5 -47.5q73 0 125.5 47.5t52.5 147.5v645h266v-1067z" />
    <glyph glyph-name="v" unicode="v" horiz-adv-x="1009" 
d="M1001 1067l-391 -1067h-209l-393 1067h281l217 -659l215 659h280z" />
    <glyph glyph-name="w" unicode="w" horiz-adv-x="1554" 
d="M1546 1067l-325 -1067h-220l-223 670l-223 -670h-219l-328 1067h283l172 -659l217 659h194l220 -659l172 659h280z" />
    <glyph glyph-name="x" unicode="x" horiz-adv-x="1079" 
d="M1055 0h-320l-196 319l-195 -319h-319l368 545l-354 522h319l181 -305l182 305h319l-354 -522z" />
    <glyph glyph-name="y" unicode="y" horiz-adv-x="1011" 
d="M1004 1067l-457 -1239q-36 -93 -80 -137q-82 -82 -229 -82h-105v239h62q58 0 85.5 19.5t47.5 77.5l45 131l-365 991h281l221 -659l213 659h281z" />
    <glyph glyph-name="z" unicode="z" horiz-adv-x="978" 
d="M889 0h-813v203l473 624h-447v240h787v-203l-479 -624h479v-240z" />
    <glyph glyph-name="braceleft" unicode="{" horiz-adv-x="935" 
d="M848 -152h-209q-153 0 -229 76q-86 86 -86 228v297q0 87 -35 122q-39 39 -107 39h-94v238h94q68 0 107 39q35 35 35 123v297q0 141 86 227q76 76 229 76h209v-240h-109q-87 0 -116 -29q-33 -36 -33 -131v-276q0 -52 -13.5 -90.5t-38.5 -61t-43.5 -33t-45.5 -20.5
q27 -10 45.5 -20.5t43.5 -33t38.5 -61t13.5 -90.5v-276q0 -95 33 -131q29 -29 116 -29h109v-240z" />
    <glyph glyph-name="bar" unicode="|" horiz-adv-x="716" 
d="M492 -152h-267v1762h267v-1762z" />
    <glyph glyph-name="braceright" unicode="}" horiz-adv-x="935" 
d="M848 610h-94q-68 0 -107 -39q-35 -35 -35 -122v-297q0 -142 -86 -228q-76 -76 -229 -76h-209v240h109q87 0 116 29q33 36 33 131v276q0 52 13.5 90.5t38.5 61t43.5 33t45.5 20.5q-27 10 -45.5 20.5t-43.5 33t-38.5 61t-13.5 90.5v276q0 95 -33 131q-29 29 -116 29h-109
v240h209q153 0 229 -76q86 -86 86 -227v-297q0 -88 35 -123q39 -39 107 -39h94v-238z" />
    <glyph glyph-name="asciitilde" unicode="~" horiz-adv-x="1241" 
d="M1165 575q-97 -97 -171.5 -136.5t-166.5 -39.5q-108 0 -239 70q-93 49 -168 49q-47 0 -85 -16.5t-91 -69.5l-168 168q97 97 170.5 136.5t165.5 39.5q110 0 239 -69q95 -50 166 -50q47 0 86 16.5t92 69.5z" />
    <glyph glyph-name="nbspace" unicode="&#xa0;" horiz-adv-x="475" 
 />
    <glyph glyph-name="exclamdown" unicode="&#xa1;" horiz-adv-x="710" 
d="M537 913q0 -66 -48 -113.5t-114 -47.5t-113 47.5t-47 113.5t47 113t113 47t114 -47t48 -113zM541 -391h-330l65 1001h197z" />
    <glyph glyph-name="cent" unicode="&#xa2;" horiz-adv-x="1021" 
d="M961 369q-120 -126 -279 -154v-215h-207v215q-170 34 -274.5 171t-104.5 364t104.5 363.5t274.5 170.5v174h207v-174q159 -28 279 -154l-177 -172q-64 67 -131 84v-585q67 17 131 84zM504 461v577q-45 -12 -78 -53q-64 -80 -64 -235q0 -156 64 -236q30 -41 78 -53z" />
    <glyph glyph-name="sterling" unicode="&#xa3;" horiz-adv-x="1185" 
d="M1094 0h-887v608h-125v205h125v166q0 117 42 212t114 155t163.5 92t194.5 32q120 0 206 -34t167 -115l-187 -186q-41 41 -81.5 61.5t-104.5 20.5q-107 0 -169.5 -63.5t-62.5 -186.5v-154h232v-205h-232v-354h605v-254z" />
    <glyph glyph-name="currency" unicode="&#xa4;" horiz-adv-x="1370" 
d="M1249 197l-174 -177l-151 150q-113 -66 -240 -66q-125 0 -238 66l-151 -150l-176 177l151 149q-67 114 -67 240q0 125 67 239l-151 150l176 176l151 -150q113 66 238 66q127 0 240 -66l151 150l174 -176l-149 -150q65 -111 65 -239q0 -129 -65 -240zM926 586
q0 99 -71 169t-171 70t-170 -69.5t-70 -169.5t70 -170t170 -70t171 70t71 170z" />
    <glyph glyph-name="yen" unicode="&#xa5;" horiz-adv-x="1169" 
d="M1163 1458l-278 -553h151v-205h-256l-53 -102v-104h309v-205h-309v-289h-283v289h-311v205h311v104l-53 102h-258v205h154l-281 553h309l271 -590l270 590h307z" />
    <glyph glyph-name="brokenbar" unicode="&#xa6;" horiz-adv-x="722" 
d="M492 893h-267v717h267v-717zM492 -152h-267v717h267v-717z" />
    <glyph glyph-name="section" unicode="&#xa7;" horiz-adv-x="1087" 
d="M969 561q0 -103 -57.5 -184t-127.5 -121q166 -83 166 -285q0 -91 -34.5 -164t-92 -118t-129 -68.5t-149.5 -23.5q-61 0 -118.5 12.5t-110 41t-91.5 70t-63 103t-25 137.5h256q3 -58 43.5 -93.5t108.5 -35.5q70 0 109.5 36t39.5 95q0 104 -143 152l-127 43
q-154 52 -226.5 140t-72.5 245q0 104 57.5 185.5t128.5 119.5q-155 81 -155 268q0 70 24.5 133t71.5 113t124 79t173 29q192 0 291.5 -98t101.5 -254h-250q-6 125 -143 125q-69 0 -106 -33.5t-37 -87.5q0 -90 137 -135l127 -41q153 -49 226 -138.5t73 -246.5zM713 551
q0 88 -51 139q-46 43 -115 43q-74 0 -117 -43q-49 -49 -49 -139q0 -88 49 -137q43 -43 117 -43q72 0 115 43q51 51 51 137z" />
    <glyph glyph-name="dieresis" unicode="&#xa8;" horiz-adv-x="1024" 
d="M881 1366q0 -57 -40.5 -97t-97.5 -40t-97 40t-40 97t40 97t97 40t97.5 -40t40.5 -97zM418 1366q0 -57 -40 -97t-97 -40t-97.5 40t-40.5 97t40.5 97t97.5 40t97 -40t40 -97z" />
    <glyph glyph-name="copyright" unicode="&#xa9;" horiz-adv-x="1728" 
d="M1606 729q0 -202 -99.5 -372.5t-270 -269.5t-372.5 -99q-151 0 -288.5 58.5t-236.5 157.5t-157.5 236.5t-58.5 288.5t58.5 288.5t157.5 236.5t236.5 157.5t288.5 58.5q202 0 372.5 -99t270 -269.5t99.5 -372.5zM1427 729q0 122 -43.5 229t-118.5 183t-179.5 120
t-221.5 44t-221.5 -44t-180 -120t-119.5 -183t-44 -229q0 -162 75 -294t204 -206.5t286 -74.5t286 74.5t203 206.5t74 294zM1149 434q-118 -106 -270 -106q-160 0 -263.5 105.5t-103.5 295.5t103.5 297t263.5 107q82 0 144.5 -27t125.5 -82l-115 -115q-42 36 -76 51t-79 15
q-95 0 -144 -65.5t-49 -180.5t49 -180.5t144 -65.5q45 0 79 15t76 51z" />
    <glyph glyph-name="ordfeminine" unicode="&#xaa;" horiz-adv-x="929" 
d="M803 606h-211v74q-44 -44 -90 -63t-117 -19q-140 0 -215 78q-72 72 -72 188q0 108 74.5 178t216.5 70h199v41q0 70 -37 101.5t-121 31.5q-59 0 -93.5 -15t-68.5 -54l-137 133q61 67 130.5 92.5t178.5 25.5q179 0 271 -76t92 -225v-561zM588 920v47h-166
q-56 0 -85.5 -26.5t-29.5 -70.5t29.5 -69t87.5 -25q48 0 78 8t55 31q31 27 31 105z" />
    <glyph glyph-name="guillemotleft" unicode="&#xab;" horiz-adv-x="1286" 
d="M1151 55l-512 508l512 508v-317l-197 -191l197 -190v-318zM580 55l-510 508l510 508v-317l-193 -191l193 -190v-318z" />
    <glyph glyph-name="logicalnot" unicode="&#xac;" 
d="M1018 193h-248v296h-676v248h924v-544z" />
    <glyph glyph-name="registered" unicode="&#xae;" horiz-adv-x="1728" 
d="M1606 729q0 -202 -99.5 -372.5t-270 -269.5t-372.5 -99q-151 0 -288.5 58.5t-236.5 157.5t-157.5 236.5t-58.5 288.5t58.5 288.5t157.5 236.5t236.5 157.5t288.5 58.5q202 0 372.5 -99t270 -269.5t99.5 -372.5zM1430 729q0 122 -44 229t-119 183t-180 120t-223 44
q-158 0 -287 -74.5t-203.5 -207t-74.5 -294.5t74.5 -294t203.5 -206.5t287 -74.5q240 0 403 164.5t163 410.5zM1198 336h-201l-143 305h-84v-305h-176v788h321q117 0 190 -72.5t73 -174.5q0 -76 -41.5 -129.5t-104.5 -79.5zM1001 877q0 43 -30 72.5t-78 29.5h-123v-205h123
q48 0 78 30t30 73z" />
    <glyph glyph-name="macron" unicode="&#xaf;" horiz-adv-x="1024" 
d="M836 1290h-648v178h648v-178z" />
    <glyph glyph-name="degree" unicode="&#xb0;" horiz-adv-x="978" 
d="M866 1110q0 -157 -110 -267t-267 -110t-266.5 110t-109.5 267t110 268t266 111q157 0 267 -111t110 -268zM651 1110q0 69 -48 116.5t-116 47.5q-67 0 -113 -47.5t-46 -116.5t46.5 -116.5t114.5 -47.5t115 47.5t47 116.5z" />
    <glyph glyph-name="plusminus" unicode="&#xb1;" 
d="M1010 698h-328v-329h-250v329h-330v248h330v330h250v-330h328v-248zM1010 0h-908v250h908v-250z" />
    <glyph glyph-name="twosuperior" unicode="&#xb2;" horiz-adv-x="733" 
d="M645 584h-557v174l320 350q45 48 45 96q0 40 -22.5 64t-63.5 24q-37 0 -61.5 -20.5t-24.5 -69.5h-193q0 123 79.5 193.5t199.5 70.5q123 0 200.5 -70.5t77.5 -191.5q0 -62 -24 -106t-82 -107l-215 -233h321v-174z" />
    <glyph glyph-name="threesuperior" unicode="&#xb3;" horiz-adv-x="753" 
d="M666 844q0 -130 -83 -199.5t-206 -69.5q-56 0 -106.5 15.5t-92 47t-66 85t-24.5 123.5h193q0 -47 27 -72.5t69 -25.5q44 0 70 26.5t26 75.5q0 43 -27.5 70.5t-72.5 27.5h-27v166h27q44 0 67 26t23 62q0 42 -25 66t-61 24q-37 0 -61.5 -23t-24.5 -63h-193q0 118 80 189
t199 71q121 0 199.5 -72.5t78.5 -185.5q0 -115 -92 -172q103 -67 103 -192z" />
    <glyph glyph-name="acute" unicode="&#xb4;" horiz-adv-x="1024" 
d="M811 1585l-233 -348h-179l131 348h281z" />
    <glyph glyph-name="mu" unicode="&#xb5;" horiz-adv-x="1179" 
d="M1030 0h-260v98q-104 -110 -266 -110q-55 0 -94 28v-407h-267v1458h267v-645q0 -100 52 -147.5t124 -47.5q73 0 125.5 47.5t52.5 147.5v645h266v-1067z" />
    <glyph glyph-name="paragraph" unicode="&#xb6;" horiz-adv-x="1368" 
d="M1198 -391h-266v1595h-205v-1595h-266v1022q-155 0 -272 121.5t-117 289.5q0 198 128.5 307t344.5 109h653v-1849z" />
    <glyph glyph-name="periodcentered" unicode="&#xb7;" horiz-adv-x="604" 
d="M481 582q0 -73 -53 -126t-127 -53q-73 0 -125.5 52.5t-52.5 126.5t52.5 127t125.5 53t126.5 -53t53.5 -127z" />
    <glyph glyph-name="cedilla" unicode="&#xb8;" horiz-adv-x="1024" 
d="M666 -123l-91 -299h-247l141 299h197z" />
    <glyph glyph-name="onesuperior" unicode="&#xb9;" horiz-adv-x="598" 
d="M457 584h-195v657l-184 -160v217l184 160h195v-874z" />
    <glyph glyph-name="ordmasculine" unicode="&#xba;" horiz-adv-x="946" 
d="M834 1032q0 -122 -21 -196t-78 -134q-100 -104 -262 -104t-262 104q-56 59 -77 133.5t-21 196.5q0 121 21 197t77 135q100 104 262 104t262 -104q56 -59 77.5 -135t21.5 -197zM618 1032q0 78 -9 128t-38 79q-37 37 -98 37t-98 -37q-29 -29 -38 -79t-9 -128t9 -127t38 -78
q36 -36 98 -36t98 36q29 29 38 78t9 127z" />
    <glyph glyph-name="guillemotright" unicode="&#xbb;" horiz-adv-x="1286" 
d="M1219 563l-512 -508v318l192 190l-192 191v317zM647 563l-510 -508v318l195 190l-195 191v317z" />
    <glyph glyph-name="onequarter" unicode="&#xbc;" horiz-adv-x="1712" 
d="M1630 117h-67v-117h-185v117h-360v182l293 575h211l-295 -575h151v127h185v-127h67v-182zM1280 1458l-690 -1458h-209l690 1458h209zM457 584h-195v657l-184 -160v217l184 160h195v-874z" />
    <glyph glyph-name="onehalf" unicode="&#xbd;" horiz-adv-x="1765" 
d="M1677 0h-557v174l320 350q47 50 47 97q0 40 -23.5 64t-64.5 24q-36 0 -60 -21t-24 -70h-195q0 123 79.5 194t199.5 71q123 0 200.5 -70.5t77.5 -191.5q0 -62 -24 -106t-82 -107l-215 -234h321v-174zM1270 1458l-690 -1458h-207l690 1458h207zM457 584h-195v657l-184 -160
v217l184 160h195v-874z" />
    <glyph glyph-name="threequarters" unicode="&#xbe;" horiz-adv-x="1771" 
d="M1690 117h-68v-117h-184v117h-361v182l293 575h211l-295 -575h152v127h184v-127h68v-182zM1346 1458l-691 -1458h-209l691 1458h209zM666 844q0 -130 -83 -199.5t-206 -69.5q-56 0 -106.5 15.5t-92 47t-66 85t-24.5 123.5h193q0 -47 27 -72.5t69 -25.5q44 0 70 26.5
t26 75.5q0 43 -27.5 70.5t-72.5 27.5h-27v166h27q44 0 67 26t23 62q0 42 -25 66t-61 24q-37 0 -61.5 -23t-24.5 -63h-193q0 118 80 189t199 71q121 0 199.5 -72.5t78.5 -185.5q0 -115 -92 -172q103 -67 103 -192z" />
    <glyph glyph-name="questiondown" unicode="&#xbf;" horiz-adv-x="1071" 
d="M698 913q0 -66 -46.5 -113.5t-112.5 -47.5t-114 47.5t-48 113.5t48 113t114 47t112.5 -47t46.5 -113zM979 8q0 -124 -58.5 -218.5t-156 -143.5t-217.5 -49q-117 0 -213.5 47t-156.5 141.5t-60 220.5q0 123 100 256l152 203q37 50 37 104v41h266v-61q0 -63 -18 -110.5
t-60 -102.5l-152 -195q-59 -77 -59 -137q0 -74 44.5 -121t119.5 -47q79 0 122.5 49t43.5 123h266z" />
    <glyph glyph-name="Agrave" unicode="&#xc0;" horiz-adv-x="1306" 
d="M1296 0h-297l-86 258h-518l-88 -258h-297l531 1458h223zM838 498l-179 530l-184 -530h363zM762 1599h-178l-234 349h281z" />
    <glyph glyph-name="Aacute" unicode="&#xc1;" horiz-adv-x="1306" 
d="M1296 0h-297l-86 258h-518l-88 -258h-297l531 1458h223zM838 498l-179 530l-184 -530h363zM948 1948l-233 -349h-178l131 349h280z" />
    <glyph glyph-name="Acircumflex" unicode="&#xc2;" horiz-adv-x="1306" 
d="M1296 0h-297l-86 258h-518l-88 -258h-297l531 1458h223zM838 498l-179 530l-184 -530h363zM1026 1599h-207l-170 187l-170 -187h-207l271 347h213z" />
    <glyph glyph-name="Atilde" unicode="&#xc3;" horiz-adv-x="1306" 
d="M1296 0h-297l-86 258h-518l-88 -258h-297l531 1458h223zM838 498l-179 530l-184 -530h363zM1018 1743q-67 -67 -120 -94t-112 -27q-76 0 -157 47q-63 37 -115 37q-31 0 -58 -11.5t-63 -47.5l-114 116q67 67 118 94t111 27q46 0 80.5 -10.5t77.5 -36.5q61 -37 112 -37
q30 0 57.5 12t63.5 48z" />
    <glyph glyph-name="Adieresis" unicode="&#xc4;" horiz-adv-x="1306" 
d="M1296 0h-297l-86 258h-518l-88 -258h-297l531 1458h223zM838 498l-179 530l-184 -530h363zM1018 1729q0 -57 -40 -97.5t-97 -40.5t-97.5 40.5t-40.5 97.5t40.5 97t97.5 40t97 -40t40 -97zM555 1729q0 -57 -40 -97.5t-97 -40.5t-97 40.5t-40 97.5t40 97t97 40t97 -40
t40 -97z" />
    <glyph glyph-name="Aring" unicode="&#xc5;" horiz-adv-x="1306" 
d="M1296 0h-297l-86 258h-518l-88 -258h-297l531 1458h223zM838 498l-179 530l-184 -530h363zM918 1810q0 -110 -79.5 -189t-189.5 -79t-189 79t-79 189t79 189.5t189 79.5q111 0 190 -78.5t79 -190.5zM768 1810q0 50 -35 84.5t-84 34.5t-84 -34.5t-35 -84.5t35 -85t84 -35
t84 35t35 85z" />
    <glyph glyph-name="AE" unicode="&#xc6;" horiz-adv-x="2004" 
d="M1896 0h-958v319h-461l-166 -319h-305l762 1458h1128v-254h-675v-344h577v-254h-577v-352h675v-254zM938 559v645l-338 -645h338z" />
    <glyph glyph-name="Ccedilla" unicode="&#xc7;" horiz-adv-x="1179" 
d="M1063 156q-85 -83 -179.5 -125.5t-226.5 -42.5q-234 0 -393 159q-35 35 -60 72.5t-40.5 85t-24.5 84.5t-13 100.5t-4.5 102t-0.5 117.5v20q0 221 12 304q26 172 131 278q159 159 393 159q132 0 227 -42t179 -125l-189 -189q-54 54 -100 78.5t-117 24.5q-114 0 -180 -76
q-42 -47 -56.5 -126.5t-14.5 -285.5t14.5 -285.5t56.5 -126.5q65 -75 180 -75q71 0 117.5 24.5t99.5 77.5zM776 -123l-90 -299h-248l142 299h196z" />
    <glyph glyph-name="Egrave" unicode="&#xc8;" horiz-adv-x="1239" 
d="M1130 0h-960v1458h960v-254h-675v-342h575v-254h-575v-354h675v-254zM748 1599h-179l-233 349h280z" />
    <glyph glyph-name="Eacute" unicode="&#xc9;" horiz-adv-x="1239" 
d="M1130 0h-960v1458h960v-254h-675v-342h575v-254h-575v-354h675v-254zM932 1948l-234 -349h-178l131 349h281z" />
    <glyph glyph-name="Ecircumflex" unicode="&#xca;" horiz-adv-x="1239" 
d="M1130 0h-960v1458h960v-254h-675v-342h575v-254h-575v-354h675v-254zM1012 1599h-207l-170 187l-170 -187h-207l270 347h213z" />
    <glyph glyph-name="Edieresis" unicode="&#xcb;" horiz-adv-x="1239" 
d="M1130 0h-960v1458h960v-254h-675v-342h575v-254h-575v-354h675v-254zM1004 1729q0 -57 -40.5 -97.5t-97.5 -40.5t-97 40.5t-40 97.5t40 97t97 40t97.5 -40t40.5 -97zM541 1729q0 -57 -40.5 -97.5t-97.5 -40.5t-97 40.5t-40 97.5t40 97t97 40t97.5 -40t40.5 -97z" />
    <glyph glyph-name="Igrave" unicode="&#xcc;" horiz-adv-x="624" 
d="M455 0h-285v1458h285v-1458zM582 1599h-179l-233 349h281z" />
    <glyph glyph-name="Iacute" unicode="&#xcd;" horiz-adv-x="624" 
d="M455 0h-285v1458h285v-1458zM582 1948l-234 -349h-178l131 349h281z" />
    <glyph glyph-name="Icircumflex" unicode="&#xce;" horiz-adv-x="624" 
d="M455 0h-285v1458h285v-1458zM924 1599h-207l-170 187l-170 -187h-207l270 347h213z" />
    <glyph glyph-name="Idieresis" unicode="&#xcf;" horiz-adv-x="624" 
d="M455 0h-285v1458h285v-1458zM907 1729q0 -57 -40 -97.5t-97 -40.5t-97 40.5t-40 97.5t40 97t97 40t97 -40t40 -97zM444 1729q0 -57 -40 -97.5t-97 -40.5t-97 40.5t-40 97.5t40 97t97 40t97 -40t40 -97z" />
    <glyph glyph-name="Eth" unicode="&#xd0;" horiz-adv-x="1396" 
d="M1276 729q0 -222 -9 -294q-19 -141 -100 -241q-9 -12 -20 -24q-73 -81 -178 -125.5t-230 -44.5h-522v629h-141v217h141v612h526q254 0 404 -172q27 -31 48 -64t34.5 -60.5t22.5 -68.5t14 -66.5t7.5 -79t2.5 -81.5v-96v-14v-13v-14zM991 725q0 192 -9.5 260.5t-41.5 114.5
q-74 106 -223 106h-215v-360h237v-217h-237v-377h215q156 0 227 108q31 44 39 107t8 258z" />
    <glyph glyph-name="Ntilde" unicode="&#xd1;" horiz-adv-x="1458" 
d="M1286 0h-254l-577 895v-895h-285v1458h254l577 -893v893h285v-1458zM1098 1743q-67 -67 -120 -94t-112 -27q-76 0 -157 47q-63 37 -115 37q-31 0 -58 -11.5t-63 -47.5l-115 116q67 67 118.5 94t111.5 27q46 0 80 -10.5t77 -36.5q61 -37 113 -37q30 0 57.5 12t63.5 48z
" />
    <glyph glyph-name="Ograve" unicode="&#xd2;" horiz-adv-x="1318" 
d="M1198 729q0 -86 -0.5 -123t-4 -105t-12.5 -105t-25 -86.5t-41.5 -88t-61.5 -74.5q-159 -159 -394 -159q-236 0 -395 159q-35 35 -60 72.5t-40.5 85t-24.5 84.5t-13 100.5t-4.5 102t-0.5 117.5v20q0 221 12 304q26 172 131 278q159 159 395 159q235 0 394 -159
q36 -36 61.5 -74.5t41.5 -88t25 -86.5t12.5 -105t4 -105t0.5 -123zM913 729q0 206 -14.5 284.5t-56.5 125.5q-68 78 -183 78q-116 0 -184 -78q-42 -47 -55.5 -124.5t-13.5 -285.5t13.5 -285.5t55.5 -124.5q67 -77 184 -77q116 0 183 77q42 47 56.5 125.5t14.5 284.5z
M772 1599h-178l-234 349h281z" />
    <glyph glyph-name="Oacute" unicode="&#xd3;" horiz-adv-x="1318" 
d="M1198 729q0 -86 -0.5 -123t-4 -105t-12.5 -105t-25 -86.5t-41.5 -88t-61.5 -74.5q-159 -159 -394 -159q-236 0 -395 159q-35 35 -60 72.5t-40.5 85t-24.5 84.5t-13 100.5t-4.5 102t-0.5 117.5v20q0 221 12 304q26 172 131 278q159 159 395 159q235 0 394 -159
q36 -36 61.5 -74.5t41.5 -88t25 -86.5t12.5 -105t4 -105t0.5 -123zM913 729q0 206 -14.5 284.5t-56.5 125.5q-68 78 -183 78q-116 0 -184 -78q-42 -47 -55.5 -124.5t-13.5 -285.5t13.5 -285.5t55.5 -124.5q67 -77 184 -77q116 0 183 77q42 47 56.5 125.5t14.5 284.5z
M958 1948l-233 -349h-178l131 349h280z" />
    <glyph glyph-name="Ocircumflex" unicode="&#xd4;" horiz-adv-x="1318" 
d="M1198 729q0 -86 -0.5 -123t-4 -105t-12.5 -105t-25 -86.5t-41.5 -88t-61.5 -74.5q-159 -159 -394 -159q-236 0 -395 159q-35 35 -60 72.5t-40.5 85t-24.5 84.5t-13 100.5t-4.5 102t-0.5 117.5v20q0 221 12 304q26 172 131 278q159 159 395 159q235 0 394 -159
q36 -36 61.5 -74.5t41.5 -88t25 -86.5t12.5 -105t4 -105t0.5 -123zM913 729q0 206 -14.5 284.5t-56.5 125.5q-68 78 -183 78q-116 0 -184 -78q-42 -47 -55.5 -124.5t-13.5 -285.5t13.5 -285.5t55.5 -124.5q67 -77 184 -77q116 0 183 77q42 47 56.5 125.5t14.5 284.5z
M1036 1599h-207l-170 187l-170 -187h-206l270 347h213z" />
    <glyph glyph-name="Otilde" unicode="&#xd5;" horiz-adv-x="1318" 
d="M1198 729q0 -86 -0.5 -123t-4 -105t-12.5 -105t-25 -86.5t-41.5 -88t-61.5 -74.5q-159 -159 -394 -159q-236 0 -395 159q-35 35 -60 72.5t-40.5 85t-24.5 84.5t-13 100.5t-4.5 102t-0.5 117.5v20q0 221 12 304q26 172 131 278q159 159 395 159q235 0 394 -159
q36 -36 61.5 -74.5t41.5 -88t25 -86.5t12.5 -105t4 -105t0.5 -123zM913 729q0 206 -14.5 284.5t-56.5 125.5q-68 78 -183 78q-116 0 -184 -78q-42 -47 -55.5 -124.5t-13.5 -285.5t13.5 -285.5t55.5 -124.5q67 -77 184 -77q116 0 183 77q42 47 56.5 125.5t14.5 284.5z
M1028 1743q-67 -67 -119.5 -94t-111.5 -27q-77 0 -158 47q-63 37 -115 37q-31 0 -58 -11.5t-63 -47.5l-114 116q67 67 118 94t111 27q46 0 80.5 -10.5t77.5 -36.5q61 -37 112 -37q30 0 57.5 12t63.5 48z" />
    <glyph glyph-name="Odieresis" unicode="&#xd6;" horiz-adv-x="1318" 
d="M1198 729q0 -86 -0.5 -123t-4 -105t-12.5 -105t-25 -86.5t-41.5 -88t-61.5 -74.5q-159 -159 -394 -159q-236 0 -395 159q-35 35 -60 72.5t-40.5 85t-24.5 84.5t-13 100.5t-4.5 102t-0.5 117.5v20q0 221 12 304q26 172 131 278q159 159 395 159q235 0 394 -159
q36 -36 61.5 -74.5t41.5 -88t25 -86.5t12.5 -105t4 -105t0.5 -123zM913 729q0 206 -14.5 284.5t-56.5 125.5q-68 78 -183 78q-116 0 -184 -78q-42 -47 -55.5 -124.5t-13.5 -285.5t13.5 -285.5t55.5 -124.5q67 -77 184 -77q116 0 183 77q42 47 56.5 125.5t14.5 284.5z
M1028 1729q0 -57 -40 -97.5t-97 -40.5t-97 40.5t-40 97.5t40 97t97 40t97 -40t40 -97zM565 1729q0 -57 -40 -97.5t-97 -40.5t-97 40.5t-40 97.5t40 97t97 40t97 -40t40 -97z" />
    <glyph glyph-name="multiply" unicode="&#xd7;" 
d="M1012 297l-168 -168l-289 289l-287 -289l-168 168l289 289l-289 288l168 168l287 -288l289 288l168 -168l-289 -288z" />
    <glyph glyph-name="Oslash" unicode="&#xd8;" horiz-adv-x="1335" 
d="M1198 729q0 -86 -0.5 -123t-4 -105t-12.5 -105t-25 -86.5t-41.5 -88t-61.5 -74.5q-159 -159 -394 -159q-132 0 -231 45l-59 -123h-203l108 227l-10 10q-35 35 -60 72.5t-40.5 85t-24.5 84.5t-13 100.5t-4.5 102t-0.5 117.5v20q0 221 12 304q26 172 131 278
q159 159 395 159q133 0 232 -45l59 123h201l-109 -227l11 -10q36 -36 61.5 -74.5t41.5 -88t25 -86.5t12.5 -105t4 -105t0.5 -123zM788 1184q-53 33 -129 33q-116 0 -184 -78q-42 -47 -55.5 -124.5t-13.5 -285.5q0 -233 18 -309zM913 729q0 225 -20 309l-365 -762
q55 -34 131 -34q116 0 183 77q42 47 56.5 125.5t14.5 284.5z" />
    <glyph glyph-name="Ugrave" unicode="&#xd9;" horiz-adv-x="1368" 
d="M1221 500q0 -151 -72 -269t-194 -180.5t-271 -62.5t-271 62.5t-194 180.5t-72 269v958h285v-948q0 -125 68 -196.5t184 -71.5t185 71.5t69 196.5v948h283v-958zM797 1599h-179l-233 349h281z" />
    <glyph glyph-name="Uacute" unicode="&#xda;" horiz-adv-x="1368" 
d="M1221 500q0 -151 -72 -269t-194 -180.5t-271 -62.5t-271 62.5t-194 180.5t-72 269v958h285v-948q0 -125 68 -196.5t184 -71.5t185 71.5t69 196.5v948h283v-958zM983 1948l-233 -349h-179l131 349h281z" />
    <glyph glyph-name="Ucircumflex" unicode="&#xdb;" horiz-adv-x="1368" 
d="M1221 500q0 -151 -72 -269t-194 -180.5t-271 -62.5t-271 62.5t-194 180.5t-72 269v958h285v-948q0 -125 68 -196.5t184 -71.5t185 71.5t69 196.5v948h283v-958zM1061 1599h-207l-170 187l-170 -187h-207l271 347h213z" />
    <glyph glyph-name="Udieresis" unicode="&#xdc;" horiz-adv-x="1368" 
d="M1221 500q0 -151 -72 -269t-194 -180.5t-271 -62.5t-271 62.5t-194 180.5t-72 269v958h285v-948q0 -125 68 -196.5t184 -71.5t185 71.5t69 196.5v948h283v-958zM1053 1729q0 -57 -40.5 -97.5t-97.5 -40.5t-97 40.5t-40 97.5t40 97t97 40t97.5 -40t40.5 -97zM590 1729
q0 -57 -40 -97.5t-97 -40.5t-97.5 40.5t-40.5 97.5t40.5 97t97.5 40t97 -40t40 -97z" />
    <glyph glyph-name="Yacute" unicode="&#xdd;" horiz-adv-x="1171" 
d="M1165 1458l-438 -860v-598h-283v598l-438 860h309l273 -588l268 588h309zM883 1948l-234 -349h-178l131 349h281z" />
    <glyph glyph-name="Thorn" unicode="&#xde;" horiz-adv-x="1296" 
d="M1217 737q0 -192 -131.5 -323t-350.5 -131h-280v-283h-285v1458h285v-268h280q219 0 350.5 -130.5t131.5 -322.5zM932 737q0 90 -57.5 144.5t-153.5 54.5h-266v-399h266q96 0 153.5 55t57.5 145z" />
    <glyph glyph-name="germandbls" unicode="&#xdf;" horiz-adv-x="1175" 
d="M1057 330q0 -163 -84 -244q-86 -86 -258 -86h-107v225h54q56 0 92 31q34 30 34 96v295q0 62 -30 92q-33 33 -92 33h-58v209h58q53 0 87.5 31t34.5 92q0 57 -38 92q-46 43 -144 43q-103 0 -146.5 -48.5t-43.5 -143.5v-1047h-266v1067q0 204 125 303.5t335 99.5
q203 0 324 -89.5t121 -268.5q0 -154 -125 -231q63 -32 95 -82.5t32 -141.5v-327z" />
    <glyph glyph-name="agrave" unicode="&#xe0;" horiz-adv-x="1093" 
d="M956 0h-260v92q-55 -55 -113.5 -78.5t-148.5 -23.5q-178 0 -272 94q-88 91 -88 240q0 135 93 222t271 87h252v53q0 88 -46.5 128t-151.5 40q-75 0 -118.5 -19.5t-86.5 -68.5l-170 166q76 84 162 115.5t223 31.5q225 0 339.5 -95t114.5 -282v-702zM690 393v58h-211
q-72 0 -110.5 -32t-38.5 -89t38.5 -90t114.5 -33q62 0 98.5 9.5t69.5 41.5q39 36 39 135zM647 1237h-178l-233 348h280z" />
    <glyph glyph-name="aacute" unicode="&#xe1;" horiz-adv-x="1093" 
d="M956 0h-260v92q-55 -55 -113.5 -78.5t-148.5 -23.5q-178 0 -272 94q-88 91 -88 240q0 135 93 222t271 87h252v53q0 88 -46.5 128t-151.5 40q-75 0 -118.5 -19.5t-86.5 -68.5l-170 166q76 84 162 115.5t223 31.5q225 0 339.5 -95t114.5 -282v-702zM690 393v58h-211
q-72 0 -110.5 -32t-38.5 -89t38.5 -90t114.5 -33q62 0 98.5 9.5t69.5 41.5q39 36 39 135zM834 1585l-234 -348h-178l131 348h281z" />
    <glyph glyph-name="acircumflex" unicode="&#xe2;" horiz-adv-x="1093" 
d="M956 0h-260v92q-55 -55 -113.5 -78.5t-148.5 -23.5q-178 0 -272 94q-88 91 -88 240q0 135 93 222t271 87h252v53q0 88 -46.5 128t-151.5 40q-75 0 -118.5 -19.5t-86.5 -68.5l-170 166q76 84 162 115.5t223 31.5q225 0 339.5 -95t114.5 -282v-702zM690 393v58h-211
q-72 0 -110.5 -32t-38.5 -89t38.5 -90t114.5 -33q62 0 98.5 9.5t69.5 41.5q39 36 39 135zM911 1237h-206l-170 186l-170 -186h-207l270 346h213z" />
    <glyph glyph-name="atilde" unicode="&#xe3;" horiz-adv-x="1093" 
d="M956 0h-260v92q-55 -55 -113.5 -78.5t-148.5 -23.5q-178 0 -272 94q-88 91 -88 240q0 135 93 222t271 87h252v53q0 88 -46.5 128t-151.5 40q-75 0 -118.5 -19.5t-86.5 -68.5l-170 166q76 84 162 115.5t223 31.5q225 0 339.5 -95t114.5 -282v-702zM690 393v58h-211
q-72 0 -110.5 -32t-38.5 -89t38.5 -90t114.5 -33q62 0 98.5 9.5t69.5 41.5q39 36 39 135zM903 1380q-66 -66 -118.5 -93t-112.5 -27q-77 0 -158 47q-61 36 -115 36q-31 0 -57.5 -11.5t-62.5 -47.5l-115 117q67 67 118 94t111 27q46 0 80.5 -10.5t77.5 -36.5q61 -37 113 -37
q31 0 57.5 11.5t62.5 47.5z" />
    <glyph glyph-name="adieresis" unicode="&#xe4;" horiz-adv-x="1093" 
d="M956 0h-260v92q-55 -55 -113.5 -78.5t-148.5 -23.5q-178 0 -272 94q-88 91 -88 240q0 135 93 222t271 87h252v53q0 88 -46.5 128t-151.5 40q-75 0 -118.5 -19.5t-86.5 -68.5l-170 166q76 84 162 115.5t223 31.5q225 0 339.5 -95t114.5 -282v-702zM690 393v58h-211
q-72 0 -110.5 -32t-38.5 -89t38.5 -90t114.5 -33q62 0 98.5 9.5t69.5 41.5q39 36 39 135zM903 1366q0 -57 -40 -97t-97 -40t-97 40t-40 97t40 97t97 40t97 -40t40 -97zM440 1366q0 -57 -40 -97t-97 -40t-97 40t-40 97t40 97t97 40t97 -40t40 -97z" />
    <glyph glyph-name="aring" unicode="&#xe5;" horiz-adv-x="1093" 
d="M956 0h-260v92q-55 -55 -113.5 -78.5t-148.5 -23.5q-178 0 -272 94q-88 91 -88 240q0 135 93 222t271 87h252v53q0 88 -46.5 128t-151.5 40q-75 0 -118.5 -19.5t-86.5 -68.5l-170 166q76 84 162 115.5t223 31.5q225 0 339.5 -95t114.5 -282v-702zM690 393v58h-211
q-72 0 -110.5 -32t-38.5 -89t38.5 -90t114.5 -33q62 0 98.5 9.5t69.5 41.5q39 36 39 135zM803 1464q0 -110 -79 -189t-189 -79t-189.5 79t-79.5 189t79.5 189.5t189.5 79.5q111 0 189.5 -78.5t78.5 -190.5zM653 1464q0 50 -34.5 84.5t-83.5 34.5t-84 -34.5t-35 -84.5
t35 -85.5t84 -35.5t83.5 35.5t34.5 85.5z" />
    <glyph glyph-name="ae" unicode="&#xe6;" horiz-adv-x="1716" 
d="M1620 451h-668q0 -106 62 -172t172 -66q84 0 135.5 23t105.5 77l162 -157q-88 -88 -178 -128t-227 -40q-247 0 -375 149q-82 -89 -166.5 -119t-208.5 -30q-176 0 -272 96q-88 91 -88 240q0 135 93 222t271 87h252v53q0 88 -46.5 128t-151.5 40q-75 0 -118.5 -19.5
t-86.5 -68.5l-170 166q76 84 162 115.5t223 31.5q243 0 350 -116q113 116 303 116q145 0 251.5 -66.5t160 -181t53.5 -262.5v-118zM1358 633q-3 60 -25 115q-51 110 -178 110t-178 -110q-22 -55 -25 -115h406zM690 393v58h-211q-72 0 -110.5 -32t-38.5 -89t38.5 -90
t114.5 -33q62 0 98.5 9.5t69.5 41.5q39 36 39 135z" />
    <glyph glyph-name="ccedilla" unicode="&#xe7;" horiz-adv-x="987" 
d="M926 133q-139 -145 -353 -145q-68 0 -131.5 15t-128 54t-111.5 98.5t-76.5 157t-29.5 222.5t29.5 222t76.5 156.5t111.5 98t127.5 53t132 14.5q216 0 353 -143l-181 -180q-42 45 -81 64.5t-91 19.5q-93 0 -151 -70q-60 -75 -60 -235q0 -163 60 -238q58 -70 151 -70
q52 0 91 19.5t81 64.5zM666 -123l-91 -299h-247l141 299h197z" />
    <glyph glyph-name="egrave" unicode="&#xe8;" horiz-adv-x="1122" 
d="M1026 451h-668q0 -106 62 -172t172 -66q84 0 136 23t106 77l161 -157q-88 -88 -178 -128t-227 -40q-80 0 -148.5 15t-134 53.5t-111 99t-73 157.5t-27.5 222q0 257 127 400.5t338 143.5q145 0 251.5 -66.5t160 -181t53.5 -262.5v-118zM764 633q-3 60 -25 115
q-51 110 -178 110t-178 -110q-22 -55 -25 -115h406zM680 1237h-178l-234 348h281z" />
    <glyph glyph-name="eacute" unicode="&#xe9;" horiz-adv-x="1122" 
d="M1026 451h-668q0 -106 62 -172t172 -66q84 0 136 23t106 77l161 -157q-88 -88 -178 -128t-227 -40q-80 0 -148.5 15t-134 53.5t-111 99t-73 157.5t-27.5 222q0 257 127 400.5t338 143.5q145 0 251.5 -66.5t160 -181t53.5 -262.5v-118zM764 633q-3 60 -25 115
q-51 110 -178 110t-178 -110q-22 -55 -25 -115h406zM866 1585l-233 -348h-178l131 348h280z" />
    <glyph glyph-name="ecircumflex" unicode="&#xea;" horiz-adv-x="1122" 
d="M1026 451h-668q0 -106 62 -172t172 -66q84 0 136 23t106 77l161 -157q-88 -88 -178 -128t-227 -40q-80 0 -148.5 15t-134 53.5t-111 99t-73 157.5t-27.5 222q0 257 127 400.5t338 143.5q145 0 251.5 -66.5t160 -181t53.5 -262.5v-118zM764 633q-3 60 -25 115
q-51 110 -178 110t-178 -110q-22 -55 -25 -115h406zM944 1237h-207l-170 186l-170 -186h-207l271 346h213z" />
    <glyph glyph-name="edieresis" unicode="&#xeb;" horiz-adv-x="1122" 
d="M1026 451h-668q0 -106 62 -172t172 -66q84 0 136 23t106 77l161 -157q-88 -88 -178 -128t-227 -40q-80 0 -148.5 15t-134 53.5t-111 99t-73 157.5t-27.5 222q0 257 127 400.5t338 143.5q145 0 251.5 -66.5t160 -181t53.5 -262.5v-118zM764 633q-3 60 -25 115
q-51 110 -178 110t-178 -110q-22 -55 -25 -115h406zM936 1366q0 -57 -40 -97t-97 -40t-97 40t-40 97t40 97t97 40t97 -40t40 -97zM473 1366q0 -57 -40 -97t-97 -40t-97 40t-40 97t40 97t97 40t97 -40t40 -97z" />
    <glyph glyph-name="igrave" unicode="&#xec;" horiz-adv-x="563" 
d="M416 0h-266v1067h266v-1067zM561 1237h-178l-233 348h280z" />
    <glyph glyph-name="iacute" unicode="&#xed;" horiz-adv-x="563" 
d="M416 0h-266v1067h266v-1067zM561 1585l-233 -348h-178l131 348h280z" />
    <glyph glyph-name="icircumflex" unicode="&#xee;" horiz-adv-x="563" 
d="M416 0h-266v1067h266v-1067zM903 1237h-207l-170 186l-170 -186h-206l270 346h213z" />
    <glyph glyph-name="idieresis" unicode="&#xef;" horiz-adv-x="563" 
d="M416 0h-266v1067h266v-1067zM887 1366q0 -57 -40 -97t-97 -40t-97.5 40t-40.5 97t40.5 97t97.5 40t97 -40t40 -97zM424 1366q0 -57 -40 -97t-97 -40t-97 40t-40 97t40 97t97 40t97 -40t40 -97z" />
    <glyph glyph-name="eth" unicode="&#xf0;" 
d="M995 520q0 -149 -25 -241.5t-93 -163.5q-123 -127 -322 -127t-322 127q-68 71 -93 163.5t-25 241.5q0 147 25 240.5t93 163.5q66 69 183 100q88 22 155 14l-69 127h-234v187h140l-64 123h285l63 -123h189v-187h-95l82 -157q76 -149 101.5 -244.5t25.5 -243.5zM729 520
q0 95 -10 152.5t-45 93.5q-45 45 -119 45q-72 0 -117 -45q-35 -36 -46 -95t-11 -151q0 -93 11 -152.5t46 -95.5q45 -45 117 -45q74 0 119 45q35 36 45 94.5t10 153.5z" />
    <glyph glyph-name="ntilde" unicode="&#xf1;" horiz-adv-x="1173" 
d="M1036 0h-266v645q0 100 -52 147.5t-124 47.5q-73 0 -125.5 -47.5t-52.5 -147.5v-645h-266v1067h260v-98q104 110 266 110q158 0 252 -94q61 -61 84.5 -134t23.5 -169v-682zM963 1380q-66 -66 -119 -93t-113 -27q-77 0 -158 47q-61 36 -114 36q-31 0 -58 -11.5t-63 -47.5
l-115 117q67 67 118.5 94t111.5 27q46 0 80 -10.5t77 -36.5q61 -37 113 -37q31 0 58 11.5t63 47.5z" />
    <glyph glyph-name="ograve" unicode="&#xf2;" 
d="M1008 535q0 -154 -26 -249t-95 -167q-124 -131 -332 -131q-206 0 -330 131q-69 72 -95 167t-26 249q0 152 26 246.5t95 166.5q124 131 330 131q208 0 332 -131q69 -72 95 -166.5t26 -246.5zM741 535q0 98 -11.5 159t-49.5 99q-47 47 -125 47q-76 0 -123 -47
q-38 -38 -49.5 -99t-11.5 -159q0 -99 11.5 -161t49.5 -100q47 -47 123 -47q78 0 125 47q38 38 49.5 100t11.5 161zM662 1237h-179l-233 348h280z" />
    <glyph glyph-name="oacute" unicode="&#xf3;" 
d="M1008 535q0 -154 -26 -249t-95 -167q-124 -131 -332 -131q-206 0 -330 131q-69 72 -95 167t-26 249q0 152 26 246.5t95 166.5q124 131 330 131q208 0 332 -131q69 -72 95 -166.5t26 -246.5zM741 535q0 98 -11.5 159t-49.5 99q-47 47 -125 47q-76 0 -123 -47
q-38 -38 -49.5 -99t-11.5 -159q0 -99 11.5 -161t49.5 -100q47 -47 123 -47q78 0 125 47q38 38 49.5 100t11.5 161zM856 1585l-233 -348h-179l131 348h281z" />
    <glyph glyph-name="ocircumflex" unicode="&#xf4;" 
d="M1008 535q0 -154 -26 -249t-95 -167q-124 -131 -332 -131q-206 0 -330 131q-69 72 -95 167t-26 249q0 152 26 246.5t95 166.5q124 131 330 131q208 0 332 -131q69 -72 95 -166.5t26 -246.5zM741 535q0 98 -11.5 159t-49.5 99q-47 47 -125 47q-76 0 -123 -47
q-38 -38 -49.5 -99t-11.5 -159q0 -99 11.5 -161t49.5 -100q47 -47 123 -47q78 0 125 47q38 38 49.5 100t11.5 161zM934 1237h-207l-170 186l-170 -186h-207l271 346h213z" />
    <glyph glyph-name="otilde" unicode="&#xf5;" 
d="M1008 535q0 -154 -26 -249t-95 -167q-124 -131 -332 -131q-206 0 -330 131q-69 72 -95 167t-26 249q0 152 26 246.5t95 166.5q124 131 330 131q208 0 332 -131q69 -72 95 -166.5t26 -246.5zM741 535q0 98 -11.5 159t-49.5 99q-47 47 -125 47q-76 0 -123 -47
q-38 -38 -49.5 -99t-11.5 -159q0 -99 11.5 -161t49.5 -100q47 -47 123 -47q78 0 125 47q38 38 49.5 100t11.5 161zM926 1380q-66 -66 -119 -93t-113 -27q-76 0 -157 47q-61 36 -115 36q-31 0 -58 -11.5t-63 -47.5l-115 117q67 67 118.5 94t111.5 27q46 0 80 -10.5t77 -36.5
q61 -37 113 -37q31 0 58 11.5t63 47.5z" />
    <glyph glyph-name="odieresis" unicode="&#xf6;" 
d="M1008 535q0 -154 -26 -249t-95 -167q-124 -131 -332 -131q-206 0 -330 131q-69 72 -95 167t-26 249q0 152 26 246.5t95 166.5q124 131 330 131q208 0 332 -131q69 -72 95 -166.5t26 -246.5zM741 535q0 98 -11.5 159t-49.5 99q-47 47 -125 47q-76 0 -123 -47
q-38 -38 -49.5 -99t-11.5 -159q0 -99 11.5 -161t49.5 -100q47 -47 123 -47q78 0 125 47q38 38 49.5 100t11.5 161zM926 1366q0 -57 -40.5 -97t-97.5 -40t-97 40t-40 97t40 97t97 40t97.5 -40t40.5 -97zM463 1366q0 -57 -40 -97t-97 -40t-97.5 40t-40.5 97t40.5 97t97.5 40
t97 -40t40 -97z" />
    <glyph glyph-name="divide" unicode="&#xf7;" 
d="M735 1008q0 -74 -52.5 -126.5t-125.5 -52.5q-74 0 -127 53t-53 126q0 74 53.5 127t126.5 53t125.5 -53t52.5 -127zM1018 461h-924v248h924v-248zM735 162q0 -74 -52.5 -127t-125.5 -53t-126.5 53t-53.5 127q0 73 53 125.5t127 52.5q73 0 125.5 -52t52.5 -126z" />
    <glyph glyph-name="oslash" unicode="&#xf8;" 
d="M1008 535q0 -154 -26 -249t-95 -167q-124 -131 -332 -131q-121 0 -213 47l-74 -125h-162l121 207l-2 2q-70 70 -95.5 165.5t-25.5 250.5q0 152 26 246.5t95 166.5q124 131 330 131q127 0 215 -45l72 123h164l-123 -207l4 -2q25 -12 44.5 -31.5t32.5 -39t21.5 -52.5
t13 -56.5t6.5 -68t2.5 -70t0.5 -78.5v-17zM655 813q-46 27 -100 27q-76 0 -123 -47q-38 -38 -49.5 -99t-11.5 -159q0 -120 14 -177zM741 535q0 109 -16 174l-268 -455q46 -27 98 -27q78 0 125 47q38 38 49.5 100t11.5 161z" />
    <glyph glyph-name="ugrave" unicode="&#xf9;" horiz-adv-x="1173" 
d="M1024 0h-260v98q-104 -110 -266 -110q-158 0 -252 94q-61 61 -85 134.5t-24 168.5v682h266v-645q0 -100 52.5 -147.5t124.5 -47.5q73 0 125.5 47.5t52.5 147.5v645h266v-1067zM692 1237h-178l-233 348h280z" />
    <glyph glyph-name="uacute" unicode="&#xfa;" horiz-adv-x="1173" 
d="M1024 0h-260v98q-104 -110 -266 -110q-158 0 -252 94q-61 61 -85 134.5t-24 168.5v682h266v-645q0 -100 52.5 -147.5t124.5 -47.5q73 0 125.5 47.5t52.5 147.5v645h266v-1067zM879 1585l-234 -348h-178l131 348h281z" />
    <glyph glyph-name="ucircumflex" unicode="&#xfb;" horiz-adv-x="1173" 
d="M1024 0h-260v98q-104 -110 -266 -110q-158 0 -252 94q-61 61 -85 134.5t-24 168.5v682h266v-645q0 -100 52.5 -147.5t124.5 -47.5q73 0 125.5 47.5t52.5 147.5v645h266v-1067zM956 1237h-206l-170 186l-170 -186h-207l270 346h213z" />
    <glyph glyph-name="udieresis" unicode="&#xfc;" horiz-adv-x="1173" 
d="M1024 0h-260v98q-104 -110 -266 -110q-158 0 -252 94q-61 61 -85 134.5t-24 168.5v682h266v-645q0 -100 52.5 -147.5t124.5 -47.5q73 0 125.5 47.5t52.5 147.5v645h266v-1067zM948 1366q0 -57 -40 -97t-97 -40t-97 40t-40 97t40 97t97 40t97 -40t40 -97zM485 1366
q0 -57 -40 -97t-97 -40t-97 40t-40 97t40 97t97 40t97 -40t40 -97z" />
    <glyph glyph-name="yacute" unicode="&#xfd;" horiz-adv-x="1171" 
d="M1004 1067l-457 -1239q-36 -93 -80 -137q-82 -82 -229 -82h-105v239h62q58 0 85.5 19.5t47.5 77.5l45 131l-365 991h281l221 -659l213 659h281zM799 1585l-234 -348h-178l131 348h281z" />
    <glyph glyph-name="thorn" unicode="&#xfe;" horiz-adv-x="1150" 
d="M1042 535q0 -79 -2.5 -126.5t-11.5 -115.5t-32.5 -119.5t-61.5 -89.5q-45 -45 -114 -70.5t-146 -25.5q-84 0 -145.5 24.5t-112.5 81.5v-485h-266v1849h266v-485q51 57 112.5 81.5t145.5 24.5q77 0 146 -25.5t114 -70.5q38 -38 61.5 -89t32.5 -118.5t11.5 -114.5t2.5 -126
zM776 535q0 58 -3.5 99t-14 82.5t-30 67t-52.5 41t-80 15.5t-80 -15.5t-52.5 -41t-30 -67t-14 -82.5t-3.5 -99t3.5 -99.5t14 -83.5t30 -67.5t52.5 -41.5t80 -16t80 16t52.5 41.5t30 67.5t14 83.5t3.5 99.5z" />
    <glyph glyph-name="ydieresis" unicode="&#xff;" horiz-adv-x="1011" 
d="M1004 1067l-457 -1239q-36 -93 -80 -137q-82 -82 -229 -82h-105v239h62q58 0 85.5 19.5t47.5 77.5l45 131l-365 991h281l221 -659l213 659h281zM868 1366q0 -57 -40 -97t-97 -40t-97 40t-40 97t40 97t97 40t97 -40t40 -97zM406 1366q0 -57 -40.5 -97t-97.5 -40t-97 40
t-40 97t40 97t97 40t97.5 -40t40.5 -97z" />
    <glyph glyph-name="dotlessi" unicode="&#x131;" horiz-adv-x="563" 
d="M416 0h-266v1067h266v-1067z" />
    <glyph glyph-name="Lslash" unicode="&#x141;" horiz-adv-x="1214" 
d="M1153 0h-946v500l-131 -84v237l131 84v721h285v-543l262 166v-235l-262 -166v-426h661v-254z" />
    <glyph glyph-name="lslash" unicode="&#x142;" horiz-adv-x="688" 
d="M633 0h-152q-153 0 -231 89.5t-78 215.5v313l-111 -67v223l111 70v614h266v-454l123 75v-223l-123 -78v-456q0 -49 21.5 -73t70.5 -24h103v-225z" />
    <glyph glyph-name="OE" unicode="&#x152;" horiz-adv-x="1978" 
d="M1868 0h-955v90q-49 -52 -120 -77t-142 -25q-123 0 -216 37.5t-171 115.5q-30 30 -53.5 66.5t-38.5 68t-25 80.5t-15.5 80t-7.5 93.5t-2.5 93.5t-0.5 106t0.5 106t2.5 93.5t7.5 93.5t15.5 80t25 80.5t38.5 68t53.5 66.5q78 78 171 115.5t216 37.5q166 0 262 -102v90h953
v-252h-670q0 -30 1 -173t1 -173h569v-250h-569q0 -30 -1 -179t-1 -179h672v-252zM913 729q0 206 -14.5 284.5t-56.5 125.5q-68 78 -183 78q-116 0 -184 -78q-42 -47 -55.5 -124.5t-13.5 -285.5t13.5 -285.5t55.5 -124.5q67 -77 184 -77q116 0 183 77q42 47 56.5 125.5
t14.5 284.5z" />
    <glyph glyph-name="oe" unicode="&#x153;" horiz-adv-x="1767" 
d="M1671 451h-667q0 -106 61.5 -172t171.5 -66q84 0 135 23t105 77l163 -157q-88 -88 -178 -128t-227 -40q-235 0 -356 135q-52 -63 -134.5 -99t-189.5 -36q-206 0 -330 131q-69 72 -95 167t-26 249q0 152 26 246.5t95 166.5q124 131 330 131q109 0 193.5 -38t136.5 -103
q116 141 321 141q145 0 251.5 -66.5t160 -181t53.5 -262.5v-118zM1407 633q-3 66 -23 115q-51 110 -178 110q-65 0 -111 -30t-69 -80q-19 -47 -22 -115h403zM741 535q0 98 -11.5 159t-49.5 99q-47 47 -125 47q-76 0 -123 -47q-38 -38 -49.5 -99t-11.5 -159q0 -99 11.5 -161
t49.5 -100q47 -47 123 -47q78 0 125 47q38 38 49.5 100t11.5 161z" />
    <glyph glyph-name="Scaron" unicode="&#x160;" horiz-adv-x="1210" 
d="M1112 430q0 -206 -152.5 -324t-388.5 -118q-173 0 -301 43.5t-231 148.5l184 185q123 -123 352 -123q126 0 192.5 46t66.5 134q0 80 -46 123q-41 38 -129 51l-176 25q-184 27 -282 120q-105 105 -105 287q0 198 137.5 320t370.5 122q153 0 265.5 -40t205.5 -130
l-180 -178q-62 60 -136.5 80.5t-162.5 20.5q-109 0 -167 -52.5t-58 -132.5q0 -64 43 -104q49 -45 135 -57l172 -25q184 -25 278 -113q113 -107 113 -309zM979 1946l-270 -347h-213l-271 347h207l170 -185l170 185h207z" />
    <glyph glyph-name="scaron" unicode="&#x161;" horiz-adv-x="1026" 
d="M952 336q0 -86 -35 -153.5t-97 -109.5t-143 -63.5t-177 -21.5q-148 0 -255 30t-200 123l174 174q100 -100 285 -100q78 0 133 27.5t55 83.5q0 87 -112 98l-168 16q-152 14 -232 85.5t-80 213.5q0 106 58.5 185t150.5 117t203 38q275 0 408 -125l-164 -166q-80 72 -248 72
q-75 0 -113.5 -29.5t-38.5 -72.5q0 -83 111 -92l168 -17q157 -15 237 -95.5t80 -217.5zM889 1583l-271 -346h-212l-271 346h207l170 -184l170 184h207z" />
    <glyph glyph-name="Ydieresis" unicode="&#x178;" horiz-adv-x="1171" 
d="M1165 1458l-438 -860v-598h-283v598l-438 860h309l273 -588l268 588h309zM952 1729q0 -57 -40 -97.5t-97 -40.5t-97 40.5t-40 97.5t40 97t97 40t97 -40t40 -97zM489 1729q0 -57 -40 -97.5t-97 -40.5t-97 40.5t-40 97.5t40 97t97 40t97 -40t40 -97z" />
    <glyph glyph-name="Zcaron" unicode="&#x17d;" horiz-adv-x="1122" 
d="M1040 0h-958v229l623 975h-596v254h931v-225l-624 -979h624v-254zM944 1946l-270 -347h-213l-271 347h207l170 -185l170 185h207z" />
    <glyph glyph-name="zcaron" unicode="&#x17e;" horiz-adv-x="978" 
d="M889 0h-813v203l473 624h-447v240h787v-203l-479 -624h479v-240zM872 1583l-270 -346h-213l-270 346h207l170 -184l170 184h206z" />
    <glyph glyph-name="florin" unicode="&#x192;" horiz-adv-x="874" 
d="M813 1249h-141q-95 0 -111 -96l-59 -340h196v-205h-231l-178 -999h-266l178 999h-138v205h173l63 356q10 59 38 112.5t71.5 98t109.5 70.5t144 25l151 -2v-224z" />
    <glyph glyph-name="circumflex" unicode="&#x2c6;" horiz-adv-x="1024" 
d="M889 1237h-207l-170 186l-170 -186h-207l271 346h212z" />
    <glyph glyph-name="caron" unicode="&#x2c7;" horiz-adv-x="1024" 
d="M889 1583l-271 -346h-212l-271 346h207l170 -184l170 184h207z" />
    <glyph glyph-name="breve" unicode="&#x2d8;" horiz-adv-x="1024" 
d="M848 1520q-7 -157 -99.5 -233.5t-234.5 -76.5q-68 0 -126 18t-105 54t-75 97t-32 141h180q7 -62 51 -92.5t107 -30.5t106 30.5t50 92.5h178z" />
    <glyph glyph-name="dotaccent" unicode="&#x2d9;" horiz-adv-x="1024" 
d="M649 1245h-274v217h274v-217z" />
    <glyph glyph-name="ring" unicode="&#x2da;" horiz-adv-x="1024" 
d="M780 1464q0 -110 -79 -189t-189 -79t-189 79t-79 189t79 189.5t189 79.5q111 0 189.5 -78.5t78.5 -190.5zM631 1464q0 50 -34.5 84.5t-84.5 34.5t-84.5 -34.5t-34.5 -84.5t35 -85.5t84 -35.5t84 35.5t35 85.5z" />
    <glyph glyph-name="ogonek" unicode="&#x2db;" horiz-adv-x="1024" 
d="M684 -422h-248l-90 299h199z" />
    <glyph glyph-name="tilde" unicode="&#x2dc;" horiz-adv-x="1024" 
d="M881 1380q-66 -66 -119 -93t-113 -27q-76 0 -157 47q-61 36 -115 36q-31 0 -58 -11.5t-63 -47.5l-115 117q67 67 118.5 94t111.5 27q46 0 80 -10.5t77 -36.5q61 -37 113 -37q31 0 58 11.5t63 47.5z" />
    <glyph glyph-name="hungarumlaut" unicode="&#x2dd;" horiz-adv-x="1024" 
d="M952 1585l-235 -348h-176l129 348h282zM528 1585l-233 -348h-178l129 348h282z" />
    <glyph glyph-name="Delta" unicode="&#x394;" horiz-adv-x="1298" 
d="M1292 0h-1286l533 1458h221zM922 240l-267 788l-274 -788h541z" />
    <glyph glyph-name="Omega" unicode="&#x3a9;" horiz-adv-x="1318" 
d="M1198 0h-448v223q71 33 110 90q29 43 41 130.5t12 271.5q0 205 -15 290t-56 132q-70 80 -183 80q-114 0 -184 -80q-41 -47 -55 -131t-14 -291q0 -184 12 -271.5t41 -130.5q39 -57 110 -90v-223h-448v252h121q-49 52 -74 113q-47 115 -47 364q0 221 12 304q26 172 131 278
q159 159 395 159q235 0 394 -159q36 -36 61.5 -74.5t41.5 -88t25 -86.5t12.5 -105t4 -105t0.5 -123q0 -249 -47 -364q-25 -61 -74 -113h121v-252z" />
    <glyph glyph-name="pi" unicode="&#x3c0;" horiz-adv-x="1212" 
d="M1055 0h-264v817h-369v-817h-266v1067h899v-1067z" />
    <glyph glyph-name="endash" unicode="&#x2013;" 
d="M1010 461h-908v248h908v-248z" />
    <glyph glyph-name="emdash" unicode="&#x2014;" horiz-adv-x="2103" 
d="M1982 463h-1861v256h1861v-256z" />
    <glyph glyph-name="quoteleft" unicode="&#x2018;" horiz-adv-x="559" 
d="M418 1206h-279v252l279 215v-467z" />
    <glyph glyph-name="quoteright" unicode="&#x2019;" horiz-adv-x="559" 
d="M418 1204l-279 -211v465h279v-254z" />
    <glyph glyph-name="quotesinglbase" unicode="&#x201a;" horiz-adv-x="555" 
d="M418 0l-279 -213v467h279v-254z" />
    <glyph glyph-name="quotedblleft" unicode="&#x201c;" horiz-adv-x="987" 
d="M848 1206h-279v252l279 215v-467zM416 1206h-277v252l277 215v-467z" />
    <glyph glyph-name="quotedblright" unicode="&#x201d;" horiz-adv-x="987" 
d="M848 1204l-279 -211v465h279v-254zM416 1204l-277 -211v465h277v-254z" />
    <glyph glyph-name="quotedblbase" unicode="&#x201e;" horiz-adv-x="993" 
d="M848 0l-279 -213v467h279v-254zM416 0l-277 -213v467h277v-254z" />
    <glyph glyph-name="dagger" unicode="&#x2020;" horiz-adv-x="1185" 
d="M1069 840h-344v-840h-266v840h-342v239h342v379h266v-379h344v-239z" />
    <glyph glyph-name="daggerdbl" unicode="&#x2021;" horiz-adv-x="1185" 
d="M1069 -12h-344v-379h-266v379h-342v239h342v613h-342v239h342v379h266v-379h344v-239h-344v-613h344v-239z" />
    <glyph glyph-name="bullet" unicode="&#x2022;" horiz-adv-x="1009" 
d="M838 684q0 -138 -98 -236t-236 -98t-236 98t-98 236t98 236t236 98t236 -98t98 -236z" />
    <glyph glyph-name="ellipsis" unicode="&#x2026;" horiz-adv-x="1732" 
d="M1610 172q0 -74 -52 -126t-126 -52t-126.5 52.5t-52.5 125.5t52.5 125.5t126.5 52.5t126 -52t52 -126zM1044 172q0 -74 -52 -126t-126 -52t-126 52t-52 126t52 126t126 52t126 -52t52 -126zM481 172q0 -73 -53 -125.5t-127 -52.5q-73 0 -125.5 52t-52.5 126t52.5 126
t125.5 52q74 0 127 -52.5t53 -125.5z" />
    <glyph glyph-name="perthousand" unicode="&#x2030;" horiz-adv-x="2480" 
d="M2372 268q0 -132 -85 -206t-212 -74q-128 0 -212.5 73.5t-84.5 206.5v203q0 133 84.5 207t212.5 74q126 0 211.5 -74.5t85.5 -206.5v-203zM1630 268q0 -132 -85 -206t-212 -74q-128 0 -212.5 73.5t-84.5 206.5v203q0 133 84.5 207t212.5 74q126 0 211.5 -74.5
t85.5 -206.5v-203zM1319 1458l-690 -1458h-209l690 1458h209zM700 987q0 -132 -85 -206t-212 -74q-128 0 -212.5 73.5t-84.5 206.5v203q0 133 84.5 206.5t212.5 73.5q127 0 212 -74t85 -206v-203zM2179 274v189q0 117 -104 117q-105 0 -105 -117v-187q0 -116 105 -116
q104 0 104 114zM1438 276v187q0 58 -27.5 87.5t-77.5 29.5q-104 0 -104 -117v-187q0 -116 104 -116q50 0 77.5 29t27.5 87zM508 995v187q0 58 -27.5 87t-77.5 29q-104 0 -104 -116v-187q0 -116 104 -116q50 0 77.5 29t27.5 87z" />
    <glyph glyph-name="guilsinglleft" unicode="&#x2039;" horiz-adv-x="716" 
d="M580 55l-510 508l510 508v-317l-193 -191l193 -190v-318z" />
    <glyph glyph-name="guilsinglright" unicode="&#x203a;" horiz-adv-x="716" 
d="M647 563l-510 -508v318l195 190l-195 191v317z" />
    <glyph glyph-name="fraction" unicode="&#x2044;" horiz-adv-x="425" 
d="M662 1458l-691 -1458h-207l691 1458h207z" />
    <glyph glyph-name="trademark" unicode="&#x2122;" horiz-adv-x="1892" 
d="M1761 584h-194v516l-164 -322h-172l-164 322v-516h-195v874h195l250 -467l250 467h194v-874zM737 1284h-225v-700h-195v700h-225v174h645v-174z" />
    <glyph glyph-name="partialdiff" unicode="&#x2202;" horiz-adv-x="1136" 
d="M987 520q0 -148 -25.5 -241t-91.5 -164q-118 -127 -319 -127q-200 0 -318 127q-67 71 -92.5 164.5t-25.5 240.5q0 150 25.5 243.5t92.5 164.5q115 123 308 123q113 0 178 -60v56q0 31 -10.5 62.5t-33 63.5t-66.5 52t-103 20q-67 0 -115.5 -19.5t-93.5 -62.5l-166 168
q81 77 170.5 108t216.5 31q228 0 348.5 -132.5t120.5 -352.5v-465zM721 520q0 92 -10.5 151t-44.5 95q-45 45 -115 45t-115 -45q-34 -36 -44.5 -95t-10.5 -151t10.5 -152t44.5 -96q45 -45 115 -45t115 45q34 36 44.5 96t10.5 152z" />
    <glyph glyph-name="product" unicode="&#x220f;" horiz-adv-x="1402" 
d="M1233 -391h-285v1696h-493v-1696h-285v1947h1063v-1947z" />
    <glyph glyph-name="summation" unicode="&#x2211;" horiz-adv-x="1130" 
d="M1055 -391h-973v225l387 770l-381 727v225h959v-253h-627l289 -572v-264l-299 -604h645v-254z" />
    <glyph glyph-name="minus" unicode="&#x2212;" 
d="M1010 461h-908v248h908v-248z" />
    <glyph glyph-name="radical" unicode="&#x221a;" horiz-adv-x="1220" 
d="M1159 1204h-188l-398 -1204h-215l-352 1067h289l172 -559l293 950h399v-254z" />
    <glyph glyph-name="infinity" unicode="&#x221e;" horiz-adv-x="1742" 
d="M1630 582q0 -168 -102.5 -276.5t-286.5 -108.5q-203 0 -371 192q-168 -192 -368 -192q-184 0 -286.5 108.5t-102.5 276.5t102.5 278.5t286.5 110.5q198 0 368 -195q170 195 371 195q184 0 286.5 -110.5t102.5 -278.5zM1372 575q0 61 -38.5 97.5t-94.5 36.5
q-50 0 -89.5 -32t-96.5 -102q38 -46 60.5 -69.5t56.5 -43.5t69 -20q56 0 94.5 36t38.5 97zM690 575q-38 47 -61 70.5t-57.5 44.5t-69.5 21q-56 0 -93.5 -37.5t-37.5 -98.5t37.5 -97t93.5 -36q50 0 91 32.5t97 100.5z" />
    <glyph glyph-name="integral" unicode="&#x222b;" horiz-adv-x="1003" 
d="M887 1260h-101q-70 0 -107.5 -36.5t-37.5 -109.5v-1124q0 -177 -106.5 -274t-284.5 -97h-133v225h100q145 0 145 144v1124q0 177 107 275t285 98h133v-225z" />
    <glyph glyph-name="approxequal" unicode="&#x2248;" horiz-adv-x="1241" 
d="M1165 805q-97 -97 -171.5 -136.5t-166.5 -39.5q-114 0 -239 67q-93 49 -168 49q-47 0 -85 -16.5t-91 -69.5l-168 168q98 98 171 137.5t165 39.5q112 0 239 -68q97 -51 166 -51q46 0 85.5 17.5t92.5 70.5zM1165 342q-97 -97 -170.5 -136.5t-165.5 -39.5q-114 0 -239 67
q-99 52 -166 52q-46 0 -85.5 -17.5t-92.5 -70.5l-170 168q97 97 172.5 136.5t167.5 39.5q110 0 237 -68q93 -49 168 -49q47 0 85 16.5t91 69.5z" />
    <glyph glyph-name="notequal" unicode="&#x2260;" horiz-adv-x="1232" 
d="M1130 238h-655l-211 -265l-162 127l113 138h-113v249h306l159 195h-465v250h656l211 264l161 -127l-112 -137h112v-250h-303l-159 -195h462v-249z" />
    <glyph glyph-name="lessequal" unicode="&#x2264;" horiz-adv-x="2103" 
d="M1810 1077l-1017 -1018l942 2l-238 -235h-1118v1116l237 238l-2 -942l1018 1017z" />
    <glyph glyph-name="greaterequal" unicode="&#x2265;" horiz-adv-x="2103" 
d="M1722 -174h-1116l-237 235l942 -4l-1020 1020l178 178l1020 -1019l-4 942l237 -238v-1114z" />
    <glyph glyph-name="lozenge" unicode="&#x25ca;" horiz-adv-x="1302" 
d="M1190 698l-539 -751l-538 751l538 750zM891 698l-240 336l-239 -336l239 -338z" />
    <glyph glyph-name="fi" unicode="&#xfb01;" horiz-adv-x="1232" 
d="M1116 1368q0 -69 -48.5 -118.5t-117.5 -49.5t-117.5 49.5t-48.5 118.5t48.5 117.5t117.5 48.5t117.5 -48.5t48.5 -117.5zM1083 0h-266v1036h266v-1036zM637 834h-197v-834h-266v834h-111v202h111v133q0 59 18.5 112.5t54.5 97.5t97 70t139 26h154v-226h-105
q-92 0 -92 -96v-117h197v-202z" />
    <glyph glyph-name="fl" unicode="&#xfb02;" horiz-adv-x="1327" 
d="M1278 0h-152q-79 0 -140.5 26t-97.5 70t-54.5 97t-18.5 112v1153h266v-1136q0 -97 95 -97h102v-225zM637 834h-197v-834h-266v834h-111v202h111v133q0 59 18.5 112.5t55 97.5t98 70t139.5 26h152v-226h-102q-95 0 -95 -96v-117h197v-202z" />
    </font>
</defs>
</svg>
